Jaane Tu…Ya Jaane Na 2006 Blueray 1080p X264 DD 5.1 ~ jasinpapa ~ | G- Drive | 9 GB |

Format : Matroska
Format version : Version 4
File size : 9.60 GiB
Duration : 2 h 33 min
Overall bit rate : 8 955 kb/s
Movie name : ~ jasinpapa ~
Encoded date : UTC 2018-05-18 07:33:28
Writing application : mkvmerge v9.6.0 (‘Slave To Your Mind’) 32bit
Writing library : libebml v1.3.4 + libmatroska v1.4.5

Video
ID : 1
Format : AVC
Format/Info : Advanced Video Codec
Format profile : [email protected]
Format settings : CABAC / 5 Ref Frames
Format settings, CABAC : Yes
Format settings, ReFrames : 5 frames
Codec ID : V_MPEG4/ISO/AVC
Duration : 2 h 33 min
Bit rate : 8 000 kb/s
Width : 1 920 pixels
Height : 816 pixels
Display aspect ratio : 2.35:1
Frame rate mode : Constant
Frame rate : 24.000 FPS
Color space : YUV
Chroma subsampling : 4:2:0
Bit depth : 8 bits
Scan type : Progressive
Bits/(Pixel*Frame) : 0.213
Stream size : 8.57 GiB (89%)
Writing library : x264 core 130 r2273 b3065e6
Encoding settings : cabac=1 / ref=5 / deblock=1:-1:-1 / analyse=0x3:0x133 / me=umh / subme=9 / psy=1 / psy_rd=1.00:0.15 / mixed_ref=1 / me_range=16 / chroma_me=1 / trellis=2 / 8x8dct=1 / cqm=0 / deadzone=21,11 / fast_pskip=0 / chroma_qp_offset=-3 / threads=18 / lookahead_threads=1 / sliced_threads=0 / nr=0 / decimate=1 / interlaced=0 / bluray_compat=0 / constrained_intra=0 / bframes=3 / b_pyramid=2 / b_adapt=2 / b_bias=0 / direct=3 / weightb=1 / open_gop=0 / weightp=2 / keyint=240 / keyint_min=24 / scenecut=40 / intra_refresh=0 / rc_lookahead=60 / rc=2pass / mbtree=1 / bitrate=8000 / ratetol=1.0 / qcomp=0.60 / qpmin=0 / qpmax=69 / qpstep=4 / cplxblur=20.0 / qblur=0.5 / vbv_maxrate=62500 / vbv_bufsize=78125 / nal_hrd=none / ip_ratio=1.40 / aq=1:1.00
Language : English
Default : Yes
Forced : No
Color range : Limited
Color primaries : BT.709
Transfer characteristics : BT.709
Matrix coefficients : BT.709

Audio #1
ID : 3
Format : AC-3
Format/Info : Audio Coding 3
Commercial name : Dolby Digital
Codec ID : A_AC3
Duration : 2 h 33 min
Bit rate mode : Constant
Bit rate : 320 kb/s
Channel(s) : 6 channels
Channel layout : L R C LFE Ls Rs
Sampling rate : 48.0 kHz
Frame rate : 31.250 FPS (1536 SPF)
Bit depth : 16 bits
Compression mode : Lossy
Stream size : 351 MiB (4%)
Title : DD AC3 5.1 @ 320 Kbps
Language : Russian
Service kind : Complete Main
Default : Yes
Forced : No

Audio #2
ID : 4
Format : AC-3
Format/Info : Audio Coding 3
Commercial name : Dolby Digital
Codec ID : A_AC3
Duration : 2 h 33 min
Bit rate mode : Constant
Bit rate : 640 kb/s
Channel(s) : 6 channels
Channel layout : L R C LFE Ls Rs
Sampling rate : 48.0 kHz
Frame rate : 31.250 FPS (1536 SPF)
Bit depth : 16 bits
Compression mode : Lossy
Stream size : 703 MiB (7%)
Title : DD AC3 5.1 @ 640 Kbps
Language : Hindi
Service kind : Complete Main
Default : No
Forced : No

Text
ID : 2
Format : UTF-8
Codec ID : S_TEXT/UTF8
Codec ID/Info : UTF-8 Plain Text
Duration : 2 h 25 min
Bit rate : 40 b/s
Count of elements : 1371
Stream size : 43.7 KiB (0%)
Language : English
Default : No
Forced : No

Menu
00:00:00.000 : en:Chapter 1
00:05:02.000 : en:Chapter 2
00:16:03.500 : en:Chapter 3
00:17:11.500 : en:Chapter 4
00:21:26.000 : en:Chapter 5
00:33:26.083 : en:Chapter 6
00:40:21.500 : en:Chapter 7
00:45:59.583 : en:Chapter 8
00:55:38.833 : en:Chapter 9
00:59:04.583 : en:Chapter 10
01:04:52.333 : en:Chapter 11
01:10:06.916 : en:Chapter 12
01:15:37.000 : en:Chapter 13
01:20:43.541 : en:Chapter 14
01:26:31.625 : en:Chapter 15
01:30:01.291 : en:Chapter 16
01:37:17.125 : en:Chapter 17
01:42:33.041 : en:Chapter 18
01:52:23.875 : en:Chapter 19
01:59:16.958 : en:Chapter 20
02:20:09.708 : en:Chapter 22
02:23:42.625 : en:Chapter 23
02:29:56.833 : en:Chapter 24

G- Drive Download 

https://drive.klop.me/file/3dc9417292

https://sharer.pw/file/a9ww2qdnKQb

 

Th File Locker Download 

https://thefileslocker.com/5vzzuqrr2ply.html

0 0 vote
Article Rating
Subscribe
Notify of
guest
4 Comments
Oldest
Newest Most Voted
Inline Feedbacks
View all comments
Pranav Patil
Pranav Patil
11 months ago

Plz re-upload…links not working

Pranav Patil
Pranav Patil
11 months ago
Reply to  SaturnWeb

Omg I can’t thank you enough… I’ve been searching for this movie everywhere…this is the bestest site I’ve ever found….very quick response ?