Jaan Tere Naam (1992) Hindi 1080p Untouched WebHD AVC {Music Video} ESuBS By-DusIcTv

xxxxxxxxxxxxxxxxxxxxxxxxxxxxxxxxxxxxxxxxxxxxxxxxxxxxxxxxxxxxxxx
Jaan Tere Naam (1992) Hindi 1080p Untouched WebHD AVC {Music Video} ESuBS By-DusIcTv
xxxxxxxxxxxxxxxxxxxxxxxxxxxxxxxxxxxxxxxxxxxxxxxxxxxxxxxxxxxxxxx

Media info
General
Format : Matroska
Format version : Version 4
File size : 1.76 GB
Overall bit rate : 6 288 kb/s
Encoded date : UTC 2019-08-04 16:40:06
Writing application : mkvmerge v35.0.0 (‘All The Love In The World’) 64-bit
Writing library : libebml v1.3.9 + libmatroska v1.5.2

Video
ID : 1
Format : AVC
Format/Info : Advanced Video Codec
Format profile : [email protected]
Format settings : CABAC / 4 Ref Frames
Format settings, CABAC : Yes
Format settings, Reference frames : 4 frames
Codec ID : V_MPEG4/ISO/AVC
Bit rate : 6 092 kb/s
Width : 1 920 pixels
Height : 1 080 pixels
Display aspect ratio : 16:9
Frame rate mode : Constant
Frame rate : 24.000 FPS
Color space : YUV
Chroma subsampling : 4:2:0
Bit depth : 8 bits
Scan type : Progressive
Bits/(Pixel*Frame) : 0.122
Stream size : 247 MiB (97%)
Title : DusIcTv
Default : Yes
Forced : No

Audio
ID : 2
Format : AAC LC
Format/Info : Advanced Audio Codec Low Complexity
Codec ID : A_AAC-2
Bit rate : 192 kb/s
Channel(s) : 2 channels
Channel layout : L R
Sampling rate : 48.0 kHz
Frame rate : 46.875 FPS (1024 SPF)
Compression mode : Lossy
Delay relative to video : 19 ms
Stream size : 7.87 MiB (3%)
Title : DusIcTv
Default : Yes
Forced : No

G- Drive Download

01-Kal College Band Ho Jayega [By-DusIcTv].mkv – 255.0 MB

02-Lekin Chhup Chuup Ke Milne Se [By-DusIcTv].mkv – 219.0 MB

03-Romance Period [By-DusIcTv].mkv – 278.1 MB

04-Maine Ye Dil Tumko Diya [By-DusIcTv].mkv – 253.1 MB

05-In The Morning [By-DusIcTv].mkv – 268.5 MB

06-Rone Na Dijiyega [By-DusIcTv].mkv – 175.1 MB

07-Akha India Janta Hai [By-DusIcTv].mkv – 244.3 MB

08-Kal College Band Ho Jayega (Sad) [By-DusIcTv].mkv – 109.2 MB

 

0 0 vote
Article Rating
Subscribe
Notify of
guest
0 Comments
Inline Feedbacks
View all comments