Jaan-E-Mann Lets Fall in Love….Again (2006) (MUSIC VIDEOS ALBUM) 1080p Untouched WebHD AVC DDP 5.1 By-DusIcTv

General
Format : Matroska
Format version : Version 4
File size : 2.20 GB
Overall bit rate mode : Variable
Overall bit rate : 9 407 kb/s
Encoded date : UTC 2020-01-08 12:34:02
Writing application : mkvmerge v41.0.0 (‘Smarra’) 64-bit
Writing library : libebml v1.3.9 + libmatroska v1.5.2

Video
ID : 1
Format : AVC
Format/Info : Advanced Video Codec
Format profile : [email protected]
Format settings : CABAC / 3 Ref Frames
Format settings, CABAC : Yes
Format settings, Reference frames : 3 frames
Codec ID : V_MPEG4/ISO/AVC
Bit rate mode : Variable
Bit rate : 8 765 kb/s
Maximum bit rate : 11.2 Mb/s
Width : 1 920 pixels
Height : 1 080 pixels
Display aspect ratio : 16:9
Frame rate mode : Constant
Frame rate : 25.000 FPS
Color space : YUV
Chroma subsampling : 4:2:0
Bit depth : 8 bits
Scan type : Progressive
Bits/(Pixel*Frame) : 0.169
Stream size : 290 MiB (93%)
Default : Yes
Forced : No

Audio
ID : 2
Format : E-AC-3
Format/Info : Enhanced AC-3
Commercial name : Dolby Digital Plus
Codec ID : A_EAC3
Bit rate mode : Constant
Bit rate : 640 kb/s
Channel(s) : 6 channels
Channel layout : L R C LFE Ls Rs
Sampling rate : 48.0 kHz
Frame rate : 31.250 FPS (1536 SPF)
Compression mode : Lossy
Delay relative to video : 16 ms
Stream size : 21.2 MiB (7%)
Service kind : Complete Main
Default : Yes
Forced : No

Text
ID : 3
Format : UTF-8
Codec ID : S_TEXT/UTF8
Codec ID/Info : UTF-8 Plain Text
Bit rate : 107 b/s
Count of elements : 40
Stream size : 2.36 KiB (0%)
Title : English_Full
Language : English
Default : No
Forced : No

Zip Download 

 

The File Locker Download

01-Hum Ko Malum Hai (1st) [By-DusIcTv].mkv – 319.9 MB

02-Hum Ko Malum Hai (2nd) [By-DusIcTv].mkv – 223.6 MB

03-Ud Jaana [By-DusIcTv].mkv – 311.8 MB

04-Jaane Ke Jaane Na [By-DusIcTv].mkv – 293.2 MB

05-Ajnabi Shehar [By-DusIcTv].mkv – 372.8 MB

06-Kabul Kar Le [By-DusIcTv].mkv – 422.6 MB

07-Sau Dard [By-DusIcTv].mkv – 316.6 MB

 

0 0 vote
Article Rating
Subscribe
Notify of
guest
0 Comments
Inline Feedbacks
View all comments