It Chapter Two 2019 BluRay 1080p Dual Audio [Hindi Org BD DD5.1 – English TrueHD Atmos 7.1 ] AVC REMUX- SaturnWeb

It Chapter Two 2019 BluRay 1080p Dual Audio [Hindi Org BD DD5.1 – English TrueHD.Atmos.7.1 ]

General

Format                                   : Matroska
Format version                           : Version 4
File size                                : 28.9 GiB
Duration                                 : 2 h 49 min
Overall bit rate mode                    : Variable
Overall bit rate                         : 24.4 Mb/s
Movie name                               : It Chapter Two
Encoded date                             : UTC 2019-12-05 02:53:08
Writing application                      : mkvmerge v29.0.0 (‘Like It Or Not’) 32-bit
Writing library                          : libebml v1.3.6 + libmatroska v1.4.9

Video
ID                                       : 1
Format                                   : AVC
Format/Info                              : Advanced Video Codec
Format profile                           : [email protected]
Format settings                          : CABAC / 4 Ref Frames
Format settings, CABAC                   : Yes
Format settings, ReFrames                : 4 frames
Codec ID                                 : V_MPEG4/ISO/AVC
Duration                                 : 2 h 49 min
Bit rate mode                            : Variable
Bit rate                                 : 19.8 Mb/s
Maximum bit rate                         : 26.0 Mb/s
Width                                    : 1 920 pixels
Height                                   : 1 080 pixels
Display aspect ratio                     : 16:9
Frame rate mode                          : Constant
Frame rate                               : 23.976 (24000/1001) FPS
Color space                              : YUV
Chroma subsampling                       : 4:2:0
Bit depth                                : 8 bits
Scan type                                : Progressive
Bits/(Pixel*Frame)                       : 0.399
Stream size                              : 23.5 GiB (81%)
Default                                  : Yes
Forced                                   : No

Audio #1
ID                                       : 2
Format                                   : MLP FBA 16-ch
Format/Info                              : Meridian Lossless Packing FBA with 16-channel presentation
Commercial name                          : Dolby TrueHD with Dolby Atmos
Codec ID                                 : A_TRUEHD
Duration                                 : 2 h 49 min
Bit rate mode                            : Variable
Bit rate                                 : 3 408 kb/s
Maximum bit rate                         : 5 559 kb/s
Channel(s)                               : 8 channels
Channel layout                           : L R C LFE Ls Rs Lb Rb
Sampling rate                            : 48.0 kHz
Frame rate                               : 1 200.000 FPS (40 SPF)
Compression mode                         : Lossless
Stream size                              : 4.03 GiB (14%)
Title                                    : TrueHD Atmos 7.1
Language                                 : English
Default                                  : Yes
Forced                                   : No
Number of dynamic objects                : 15
Bed channel count                        : 1 channel
Bed channel configuration                : LFE

Audio #2
ID                                       : 3
Format                                   : AC-3
Format/Info                              : Audio Coding 3
Commercial name                          : Dolby Digital
Codec ID                                 : A_AC3
Duration                                 : 2 h 49 min
Bit rate mode                            : Constant
Bit rate                                 : 640 kb/s
Channel(s)                               : 6 channels
Channel layout                           : L R C LFE Ls Rs
Sampling rate                            : 48.0 kHz
Frame rate                               : 31.250 FPS (1536 SPF)
Bit depth                                : 16 bits
Compression mode                         : Lossy
Stream size                              : 776 MiB (3%)
Title                                    : AC3 5.1-EX
Language                                 : English
Service kind                             : Complete Main
Default                                  : No
Forced                                   : No

Audio #3
ID                                       : 5
Format                                   : AC-3
Format/Info                              : Audio Coding 3
Commercial name                          : Dolby Digital
Codec ID                                 : A_AC3
Duration                                 : 2 h 49 min
Bit rate mode                            : Constant
Bit rate                                 : 448 kb/s
Channel(s)                               : 6 channels
Channel layout                           : L R C LFE Ls Rs
Sampling rate                            : 48.0 kHz
Frame rate                               : 31.250 FPS (1536 SPF)
Bit depth                                : 16 bits
Compression mode                         : Lossy
Stream size                              : 543 MiB (2%)
Title                                    : DD 5.1
Language                                 : Hindi
Service kind                             : Complete Main
Default                                  : No
Forced                                   : No

Text
ID                                       : 4
Format                                   : PGS
Muxing mode                              : zlib
Codec ID                                 : S_HDMV/PGS
Codec ID/Info                            : Picture based subtitle format used on BDs/HD-DVDs
Duration                                 : 2 h 44 min
Bit rate                                 : 36.4 kb/s
Count of elements                        : 5486
Stream size                              : 42.8 MiB (0%)
Title                                    : English (SDH)
Language                                 : English
Default                                  : No
Forced                                   : No

Menu
00:00:00.000                             : en:Chapter 01
00:09:10.341                             : en:Chapter 02
00:19:06.354                             : en:Chapter 03
00:27:00.744                             : en:Chapter 04
00:37:51.227                             : en:Chapter 05
00:46:19.986                             : en:Chapter 06
00:55:46.802                             : en:Chapter 07
01:05:36.474                             : en:Chapter 08
01:17:19.134                             : en:Chapter 09
01:29:21.565                             : en:Chapter 10
01:41:02.974                             : en:Chapter 11
01:49:11.336                             : en:Chapter 12
01:59:33.833                             : en:Chapter 13
02:05:31.774                             : en:Chapter 14
02:14:25.933                             : en:Chapter 15
02:22:43.889                             : en:Chapter 16
02:32:57.168                             : en:Chapter 17
02:42:15.643                             : en:Chapter 18
02:44:52.508                             : en:Chapter 19

G- Drive Full Movie download 

https://drive.klop.me/file/4d904588cb

https://sharer.pw/file/B0VfKw75cZ9

G- Drive Parts Download

It Chapter Two 2019 BluRay 1080p Dual Audio [Hindi Org BD DD5.1 – English TrueHD.Atmos.7.1 ] AVC REMUX- SaturnWeb.part1.rar

It Chapter Two 2019 BluRay 1080p Dual Audio [Hindi Org BD DD5.1 – English TrueHD.Atmos.7.1 ] AVC REMUX- SaturnWeb.part2.rar

It Chapter Two 2019 BluRay 1080p Dual Audio [Hindi Org BD DD5.1 – English TrueHD.Atmos.7.1 ] AVC REMUX- SaturnWeb.part3.rar

It Chapter Two 2019 BluRay 1080p Dual Audio [Hindi Org BD DD5.1 – English TrueHD.Atmos.7.1 ] AVC REMUX- SaturnWeb.part4.rar

It Chapter Two 2019 BluRay 1080p Dual Audio [Hindi Org BD DD5.1 – English TrueHD.Atmos.7.1 ] AVC REMUX- SaturnWeb.part5.rar

It Chapter Two 2019 BluRay 1080p Dual Audio [Hindi Org BD DD5.1 – English TrueHD.Atmos.7.1 ] AVC REMUX- SaturnWeb.part6.rar

It Chapter Two 2019 BluRay 1080p Dual Audio [Hindi Org BD DD5.1 – English TrueHD.Atmos.7.1 ] AVC REMUX- SaturnWeb.part7.rar

The File Locker Download 4.5 GB 

It Chapter Two 2019 BluRay 1080p Dual Audio [Hindi Org BD DD5.1 – English TrueHD.Atmos.7.1 ] AVC REMUX- SaturnWeb.part7.rar – 2.5 GB

It Chapter Two 2019 BluRay 1080p Dual Audio [Hindi Org BD DD5.1 – English TrueHD.Atmos.7.1 ] AVC REMUX- SaturnWeb.part6.rar – 4.4 GB

It Chapter Two 2019 BluRay 1080p Dual Audio [Hindi Org BD DD5.1 – English TrueHD.Atmos.7.1 ] AVC REMUX- SaturnWeb.part5.rar – 4.4 GB

It Chapter Two 2019 BluRay 1080p Dual Audio [Hindi Org BD DD5.1 – English TrueHD.Atmos.7.1 ] AVC REMUX- SaturnWeb.part4.rar – 4.4 GB

It Chapter Two 2019 BluRay 1080p Dual Audio [Hindi Org BD DD5.1 – English TrueHD.Atmos.7.1 ] AVC REMUX- SaturnWeb.part3.rar – 4.4 GB

It Chapter Two 2019 BluRay 1080p Dual Audio [Hindi Org BD DD5.1 – English TrueHD.Atmos.7.1 ] AVC REMUX- SaturnWeb.part2.rar – 4.4 GB

It Chapter Two 2019 BluRay 1080p Dual Audio [Hindi Org BD DD5.1 – English TrueHD.Atmos.7.1 ] AVC REMUX- SaturnWeb.part1.rar – 4.4 GB

0 0 vote
Article Rating
Subscribe
Notify of
guest
7 Comments
Oldest
Newest Most Voted
Inline Feedbacks
View all comments
Katper
Katper
1 year ago

thanks buddy

Satyam jais
Satyam jais
1 year ago

Bro plz upload this movie 10800 10bit hevc.. In dual audio

Satyam jais
Satyam jais
Reply to  SaturnWeb
1 year ago

Bro plz upload IT 2 in 1080p 10bit hevc… Plz bro

Akshat
Akshat
1 year ago

Bro please upload the link directly because Google drive offers 15 gb storage and the movie is of 29gb. I can’t download it because sharer.pw wants at least 30gb of storage for this movie. Or please send the link to my email address. [email protected]