Ishaqzaade.2012.BluRay.1080p.DTS-HD.MA.5.1.AVC.REMUX-FraMeSToR 30GB

encrypted-tbn3.gstatic.com/images?q=tbn:ANd9GcS...

Complete name : Ishaqzaade.2012.BluRay.1080p.DTS-HD.MA.5.1.AVC.REMUX-FraMeSToR
Format : Matroska
Format version : Version 4
File size : 29.6 GiB
Duration : 2 h 12 min
Overall bit rate mode : Variable
Overall bit rate : 32.1 Mb/s
Movie name : Ishaqzaade (2012)
Encoded date : UTC 2018-04-13 10:21:36
Writing application : mkvmerge v22.0.0 (‘At The End Of The World’) 64-bit
Writing library : libebml v1.3.5 + libmatroska v1.4.8
Video
ID : 1
Format : AVC
Format/Info : Advanced Video Codec
Format profile : [email protected]
Format settings : CABAC / 4 Ref Frames
Format settings, CABAC : Yes
Format settings, Reference frames : 4 frames
Format settings, GOP : M=3, N=12
Codec ID : V_MPEG4/ISO/AVC
Duration : 2 h 12 min
Bit rate mode : Variable
Bit rate : 28.0 Mb/s
Maximum bit rate : 32.0 Mb/s
Width : 1 920 pixels
Height : 1 080 pixels
Display aspect ratio : 16:9
Frame rate mode : Constant
Frame rate : 24.000 FPS
Standard : NTSC
Color space : YUV
Chroma subsampling : 4:2:0
Bit depth : 8 bits
Scan type : Progressive
Bits/(Pixel*Frame) : 0.562
Stream size : 25.8 GiB (87%)
Default : Yes
Forced : No
Color range : Limited
Color primaries : BT.709
Transfer characteristics : BT.709
Matrix coefficients : BT.709
Audio
ID : 2
Format : DTS XLL
Format/Info : Digital Theater Systems
Commercial name : DTS-HD Master Audio
Codec ID : A_DTS
Duration : 2 h 11 min
Bit rate mode : Variable
Bit rate : 4 094 kb/s
Channel(s) : 6 channels
Channel layout : C L R Ls Rs LFE
Sampling rate : 48.0 kHz
Frame rate : 93.750 FPS (512 SPF)
Bit depth : 24 bits
Compression mode : Lossless
Stream size : 3.77 GiB (13%)
Title : DTS-HD MA 5.1
Language : Hindi
Default : Yes
Forced : No
Text #1
ID : 3
Format : PGS
Codec ID : S_HDMV/PGS
Codec ID/Info : Picture based subtitle format used on BDs/HD-DVDs
Duration : 2 h 8 min
Bit rate : 33.9 kb/s
Count of elements : 3526
Stream size : 31.0 MiB (0%)
Title : English
Language : English
Default : Yes
Forced : No
Text #2
ID : 4
Format : PGS
Codec ID : S_HDMV/PGS
Codec ID/Info : Picture based subtitle format used on BDs/HD-DVDs
Duration : 2 h 8 min
Bit rate : 18.8 kb/s
Count of elements : 3506
Stream size : 17.2 MiB (0%)
Title : Arabic
Language : Arabic
Default : No
Forced : No
Menu
00:00:00.000 : en:1. Beginning / The War of Words
00:01:14.000 : en:2. Aafaton Ke Parinde / Ishaqzaade (Credits)
00:03:20.417 : en:3. Parma Chouhan
00:06:26.667 : en:4. Zoya Qureshi
00:18:26.417 : en:5. Jhalla Wallah
00:22:44.375 : en:6. Chouhan vs. Qureshi
00:31:27.208 : en:7. Game of Politics
00:37:28.250 : en:8. Parma’s Trap
00:42:03.833 : en:9. Pareshaan
00:47:46.000 : en:10. The Wedding
01:01:36.292 : en:11. Chouhan’s Victory
01:05:45.375 : en:12. Chokra Jawaan
01:11:41.208 : en:13. Zoya Strikes Back
01:18:10.125 : en:14. Amma’s Death
01:25:04.083 : en:15. Seeking Shelter
01:30:23.625 : en:16. Parma Asks for Forgiveness
01:39:33.000 : en:17. Ishaqzaade
01:47:13.958 : en:18. Zoya’s Dismay
01:56:47.625 : en:19. Open Fire
02:07:43.833 : en:20. End (Credits)


vlcsnap-2020-04-12-22h56m15s291vlcsnap-2020-04-12-22h56m29s453vlcsnap-2020-04-12-22h56m23s558vlcsnap-2020-04-12-22h56m33s601vlcsnap-2020-04-12-22h56m42s825vlcsnap-2020-04-12-22h56m38s919vlcsnap-2020-04-12-22h56m59s124vlcsnap-2020-04-12-22h56m54s975vlcsnap-2020-04-12-22h57m14s009vlcsnap-2020-04-12-22h57m18s384
Gdrive Single Link+Download

https://bit.ly/2XskIhq

Mega.co.nz Single Link+Dowload

https://bit.ly/3a37Hh5

0 0 vote
Article Rating
Subscribe
Notify of
guest
4 Comments
Oldest
Newest Most Voted
Inline Feedbacks
View all comments
salman
1 year ago

plzzz upload this movie ishaqzaade 2012 in less than 18gb

Raj
Raj
1 year ago

Second link is invalid