IshaqZaade 2012 720 BDRip 5GB

encrypted-tbn3.gstatic.com/images?q=tbn:ANd9GcS...

Complete name : Ishaqzaade.2012.BDRip 720p Bd Rip.mkv
Format : Matroska
Format version : Version 4
File size : 4.36 GiB
Duration : 2 h 11 min
Overall bit rate mode : Variable
Overall bit rate : 4 731 kb/s
Writing application : mkvmerge v6.1.0 (‘Old Devil’) built on Mar 2 2013 14:32:37
Writing library : libebml v1.3.0 + libmatroska v1.4.0
Video
ID : 1
Format : AVC
Format/Info : Advanced Video Codec
Format profile : [email protected]
Format settings : CABAC / 3 Ref Frames
Format settings, CABAC : Yes
Format settings, Reference frames : 3 frames
Format settings, GOP : M=1, N=24
Codec ID : V_MPEG4/ISO/AVC
Duration : 2 h 11 min
Bit rate mode : Variable
Bit rate : 4 089 kb/s
Maximum bit rate : 40.0 Mb/s
Width : 1 280 pixels
Height : 544 pixels
Display aspect ratio : 2.35:1
Frame rate mode : Constant
Frame rate : 24.000 FPS
Color space : YUV
Chroma subsampling : 4:2:0
Bit depth : 8 bits
Scan type : Progressive
Bits/(Pixel*Frame) : 0.245
Stream size : 3.68 GiB (84%)
Writing library : x264 core 116 r2074 2641b9e
Encoding settings : cabac=1 / ref=4 / deblock=1:-1:-1 / analyse=0x3:0x133 / me=umh / subme=9 / psy=1 / psy_rd=1.00:0.15 / mixed_ref=1 / me_range=24 / chroma_me=1 / trellis=2 / 8x8dct=1 / cqm=0 / deadzone=21,11 / fast_pskip=1 / chroma_qp_offset=-3 / threads=18 / sliced_threads=0 / slices=4 / nr=0 / decimate=1 / interlaced=0 / bluray_compat=0 / constrained_intra=0 / bframes=3 / b_pyramid=1 / b_adapt=2 / b_bias=0 / direct=3 / weightb=1 / open_gop=0 / weightp=2 / keyint=24 / keyint_min=2 / scenecut=40 / intra_refresh=0 / rc_lookahead=24 / rc=2pass / mbtree=1 / bitrate=4089 / ratetol=1.0 / qcomp=0.60 / qpmin=10 / qpmax=51 / qpstep=4 / cplxblur=20.0 / qblur=0.5 / vbv_maxrate=40000 / vbv_bufsize=30000 / nal_hrd=vbr / ip_ratio=1.40 / aq=1:1.00
Language : English
Default : Yes
Forced : No
Color range : Limited
Color primaries : BT.709
Transfer characteristics : BT.709
Matrix coefficients : BT.709
Audio
ID : 2
Format : AC-3
Format/Info : Audio Coding 3
Commercial name : Dolby Digital
Codec ID : A_AC3
Duration : 2 h 11 min
Bit rate mode : Constant
Bit rate : 640 kb/s
Channel(s) : 6 channels
Channel layout : L R C LFE Ls Rs
Sampling rate : 48.0 kHz
Frame rate : 31.250 FPS (1536 SPF)
Compression mode : Lossy
Stream size : 604 MiB (14%)
Language : Hindi
Service kind : Complete Main
Default : No
Forced : No
Menu
00:00:00.000 : en:00:00:00.000
00:01:14.000 : en:00:01:14.000
00:03:20.417 : en:00:03:20.417
00:06:26.667 : en:00:06:26.667
00:18:26.417 : en:00:18:26.417
00:22:44.375 : en:00:22:44.375
00:31:27.208 : en:00:31:27.208
00:37:28.250 : en:00:37:28.250
00:42:03.833 : en:00:42:03.833
00:47:46.000 : en:00:47:46.000
01:01:36.292 : en:01:01:36.292
01:05:45.375 : en:01:05:45.375
01:11:41.208 : en:01:11:41.208
01:18:10.125 : en:01:18:10.125
01:25:04.083 : en:01:25:04.083
01:30:23.625 : en:01:30:23.625
01:39:33.000 : en:01:39:33.000
01:47:13.958 : en:01:47:13.958
01:56:47.625 : en:01:56:47.625
02:07:43.833 : en:02:07:43.833


vlcsnap-2020-04-10-22h49m29s853vlcsnap-2020-04-10-22h49m37s442vlcsnap-2020-04-10-22h49m43s144vlcsnap-2020-04-10-22h49m54s116vlcsnap-2020-04-10-22h49m59s832vlcsnap-2020-04-10-22h50m05s041vlcsnap-2020-04-10-22h50m10s288vlcsnap-2020-04-10-22h50m18s020vlcsnap-2020-04-10-22h50m24s896vlcsnap-2020-04-10-22h50m31s577vlcsnap-2020-04-10-22h50m36s243vlcsnap-2020-04-10-22h50m42s106
Gdrive Single Link+Download
https://bit.ly/34ppuxw

Ulozto.net Single Link+Download
https://bit.ly/2ViZEqX

0 0 vote
Article Rating
Subscribe
Notify of
guest
2 Comments
Oldest
Newest Most Voted
Inline Feedbacks
View all comments
SAEED BAGBAN
1 year ago

& Your Biggest Biggest DIE HARD FAN & A DIE HEART FAN Wanna Say U Something & That Is – World’s & Universe’s Bestest ADMIN BRO – SAMDUPLOADER BRO I’ve Requested U 4 Single Downloading Link – ( 7-up.net ) 2 – Maine Pyar Kiya (1989) 24 Gb File Size… Cause In Google Drive It Does Not Support Pause & Resume… & I Don’t Have That Much Space In My Drive 2 Download 24 Gb File Size.. I Only Have 15 Gb In My Drive.. Once I Was Downloading 14 Gb Movie From Google Drive & My 12 Gb 130 Mb Data Lost , Cause Of Network Error. Automatically 4G Sign Has Gone & Movie Has Been Failed , & Restarted From 1st From ( Google Drive) ..
& From Mega Drive I Was Downloading – Maine Pyar Kiya & I’ve Installed The Mega App.. But The Movie Was Failed & I Lost My 10 Gb 470 Mb.. & Again 2nd Time I Was Trying 2 Download But Unfortunately Its Saying Buy Premium Packs…
& Nowadays Cause Of Lockdown Mobile Shops R Closed.. & If One Mobile Shop Is Opened , He Is Saying – No Balance 2 Recharge.. It’s Very Very HARD 4 Me 2 Recharge.. & I’m Recharging By Lots Of Difficulties…
World’s , Universe Bestest SAMDUPLOADER BRO I Don’t Have Wifi… I’m Downloading Movies Via Vodafone Sim card. 48 Rs Recharge 3 Gb Pack. & I’m Recharging 48×10 = 30 Gb.. & SAMDUPLOADER (Ashish Sen) BRO Nothing Is Impossible 4 U Cause U R Best Of Best Uploader In The World ( Universe) . & I’m Addicted 2 U & 2 Your Bestest Wapsite… So Its My Very Very Humble Request 2 U Is Please Plz Pls Add – Downloading Link – 7-up.net single link+Download Or Torrent Magnet Link 2 – Maine Pyar Kiya (1989)..
आणि ( जगाच्या , संसाराचे ) सर्वोत्तम , चांगले ,
प्रशासक भाऊ मी तूमचा हृदया पासून लई आभारी आहे ।।। आणि राहणार माझ्या शेवटच्या श्वासापर्यंत !!!