Into The Wild with Bear Grylls & Superstar Rajinikanth 2020 Hindi 720p x264 ACC -Saturnweb | 800 MB |

Source =  Into The Wild with Bear Grylls & Superstar Rajinikanth.S1.E1.2020.1080p.DSCV+.WEB-DL.HIN-Multi.AAC.2.0.x264-Telly

Format : Matroska
Format version : Version 2
File size : 813 MiB
Duration : 44 min 56 s
Overall bit rate mode : Variable
Overall bit rate : 2 528 kb/s
Encoded date : UTC 2020-03-23 11:46:04
Writing application : DVDFab 11.0.7.1
Writing library : libebml v1.3.4 + libmatroska v1.4.5

Video
ID : 1
Format : AVC
Format/Info : Advanced Video Codec
Format profile : [email protected]
Format settings : CABAC / 2 Ref Frames
Format settings, CABAC : Yes
Format settings, ReFrames : 2 frames
Format settings, GOP : M=3, N=25
Codec ID : V_MPEG4/ISO/AVC
Duration : 44 min 56 s
Bit rate mode : Variable
Bit rate : 2 334 kb/s
Maximum bit rate : 3 456 kb/s
Width : 1 280 pixels
Height : 720 pixels
Display aspect ratio : 16:9
Frame rate mode : Constant
Frame rate : 25.000 FPS
Color space : YUV
Chroma subsampling : 4:2:0
Bit depth : 8 bits
Scan type : Progressive
Bits/(Pixel*Frame) : 0.101
Stream size : 750 MiB (92%)
Default : Yes
Forced : No

Audio
ID : 2
Format : AC-3
Format/Info : Audio Coding 3
Commercial name : Dolby Digital
Codec ID : A_AC3
Duration : 44 min 56 s
Bit rate mode : Constant
Bit rate : 192 kb/s
Channel(s) : 2 channels
Channel layout : L R
Sampling rate : 48.0 kHz
Frame rate : 31.250 FPS (1536 SPF)
Bit depth : 16 bits
Compression mode : Lossy
Stream size : 61.7 MiB (8%)
Language : Hindi
Service kind : Complete Main
Default : Yes
Forced : No

46e920ec1cedf086a791be6eeafae9a0.png
8a962974ced5af3c389a23b84b31b819.png
bc2f9b03decc310e3d1fc9e2c13c4f9f.png
7dc59e579f7437894791e9651b40e154.png
dc1093f243345960f176f593d48abf54.png

https://thefileslocker.com/4rj5ukm8cy1s.html

0 0 vote
Article Rating
Subscribe
Notify of
guest
0 Comments
Inline Feedbacks
View all comments