Inteha (2003) | Kaal (2005) Hindi 1080p WebHD AVC DDP 5.1 {Music Video} ESuBS By-DusIcTv

xxxxxxxxxxxxxxxxxxxxxxxxxxxxxxxxxxxxxxxxxxxxxxxxxxxxxxxxxxxxxxx
Inteha (2003) & Kaal (2005) Hindi 1080p WebHD AVC DDP 5.1 {Music Video} ESuBS By-DusIcTv
xxxxxxxxxxxxxxxxxxxxxxxxxxxxxxxxxxxxxxxxxxxxxxxxxxxxxxxxxxxxxxx

Media info
General
General
Format                         : Matroska
Format version                 : Version 4
File size                      : 2.49 GB
Overall bit rate mode          : Variable
Overall bit rate               : 6382 kb/s
Writing application            : mkvmerge v36.0.0 (‘Is That Jazz?’) 32-bit
Writing library                : libebml v1.3.9 + libmatroska v1.5.2

Video
ID                             : 1
Format                         : AVC
Format/Info                    : Advanced Video Codec
Format profile                 : [email protected]
Format settings                : CABAC / 4 Ref Frames
Format settings, CABAC         : Yes
Format settings, Reference fra : 4 frames
Codec ID                       : V_MPEG4/ISO/AVC
Bit rate mode                  : Variable
Bit rate                       : 5741 kb/s
Maximum bit rate               : 15.0 Mb/s
Width                          : 1920 pixels
Height                         : 816 pixels
Display aspect ratio           : 2.35:1
Frame rate mode                : Constant
Frame rate                     : 24.000 FPS
Color space                    : YUV
Chroma subsampling             : 4:2:0
Bit depth                      : 8 bits
Scan type                      : Progressive
Bits/(Pixel*Frame)             : 0.153
Stream size                    : 249 MiB (90%)
Default                        : Yes
Forced                         : No
Color range                    : Limited
Color primaries                : BT.709
Transfer characteristics       : BT.709
Matrix coefficients            : BT.709

Audio
ID                             : 2
Format                         : E-AC-3
Format/Info                    : Enhanced AC-3
Commercial name                : Dolby Digital Plus
Codec ID                       : A_EAC3
Bit rate mode                  : Constant
Bit rate                       : 640 kb/s
Channel(s)                     : 6 channels
Channel layout                 : L R C LFE Ls Rs
Sampling rate                  : 48.0 kHz
Frame rate                     : 31.250 FPS (1536 SPF)
Compression mode               : Lossy
Delay relative to video        : 12 ms
Stream size                    : 27.7 MiB (10%)
Language                       : English
Service kind                   : Complete Main
Default                        : Yes
Forced                         : No

Text
ID                             : 3
Format                         : UTF-8
Codec ID                       : S_TEXT/UTF8
Codec ID/Info                  : UTF-8 Plain Text
Bit rate                       : 35 b/s
Count of elements              : 59
Stream size                    : 1.34 KiB (0%)
Default                        : Yes
Forced                         : No

Screen Shot

G- Drive Download

01-Dhalne Lagi Hai Raat [By-DusIcTv].mkv – 276.4 MB

02-Yun Hi Dil Ko Agar [By-DusIcTv].mkv – 304.0 MB

03-Humsafar Chahiye [By-DusIcTv].mkv – 293.9 MB

04-Ab Humse Akele Raha Jaaye [By-DusIcTv].mkv – 482.4 MB

05-Deewana Dil [By-DusIcTv].mkv – 436.7 MB

06-Kaal Dhamaal (Kaal – Bonus) [By-DusIcTv].mkv – 532.8 MB

07-Tauba Tauba (Kaal – Bonus) [By-DusIcTv].mkv – 230.3 MB

0 0 vote
Article Rating
Subscribe
Notify of
guest
0 Comments
Inline Feedbacks
View all comments