INSIDE EDGE S01 – 10 EPISODES – 1080P MULTI AMZN WEB-DL DDP 5.1 [HI+TA+TE] MSUB – DTONE | 23 GB |

General
Complete name                            : Inside Edge S01E02 [1080p].mkv
Format                                   : Matroska
Format version                           : Version 4 / Version 2
File size                                : 1.75 GiB
Duration                                 : 41 min 7 s
Overall bit rate                         : 6 081 kb/s
Encoded date                             : UTC 2018-12-09 17:21:54
Writing application                      : mkvmerge v28.2.0 (‘The Awakening’) 64-bit
Writing library                          : libebml v1.3.6 + libmatroska v1.4.9

Video
ID                                       : 1
Format                                   : AVC
Format/Info                              : Advanced Video Codec
Format profile                           : [email protected]
Format settings                          : CABAC / 4 Ref Frames
Format settings, CABAC                   : Yes
Format settings, RefFrames               : 4 frames
Codec ID                                 : V_MPEG4/ISO/AVC
Duration                                 : 41 min 7 s
Bit rate                                 : 4 158 kb/s
Width                                    : 1 920 pixels
Height                                   : 1 080 pixels
Display aspect ratio                     : 16:9
Frame rate mode                          : Constant
Frame rate                               : 25.000 FPS
Color space                              : YUV
Chroma subsampling                       : 4:2:0
Bit depth                                : 8 bits
Scan type                                : Progressive
Bits/(Pixel*Frame)                       : 0.080
Stream size                              : 1.19 GiB (68%)
Default                                  : Yes
Forced                                   : No
Color range                              : Limited
Color primaries                          : BT.709
Transfer characteristics                 : BT.709
Matrix coefficients                      : BT.709

Audio #1, #2 & #3
Format                                   : E-AC-3
Format/Info                              : Enhanced Audio Coding 3
Codec ID                                 : A_EAC3
Duration                                 : 41 min 7 s
Bit rate mode                            : Constant
Bit rate                                 : 640 kb/s
Channel(s)                               : 6 channels
Channel positions                        : Front: L C R, Side: L R, LFE
Sampling rate                            : 48.0 kHz
Frame rate                               : 187.500 FPS (256 SPF)
Compression mode                         : Lossy
Stream size                              : 188 MiB (11%)
Language                                 : Hindi, Tamil, Telugu
Service kind                             : Complete Main
Default                                  : Yes
Forced                                   : No

Text #1, #2 & #3
Format                                   : UTF-8
Codec ID                                 : S_TEXT/UTF8
Codec ID/Info                            : UTF-8 Plain Text
Duration                                 : 38 min 32 s
Bit rate                                 : 57 b/s
Count of elements                        : 543
Stream size                              : 16.3 KiB (0%)
Language                                 : English, Tamil, Telugu
Default                                  : Yes, No, No
Forced                                   : No, No, No

Google Drive Link : 

Inside Edge S01E01 [1080p] :  https://drive.klop.me/file/2c4b8ddac1

Inside Edge S01E02 [1080p] : https://drive.klop.me/file/0c76f3cfbb

Inside Edge S01E03 [1080p] : https://drive.klop.me/file/be790eed52

Inside Edge S01E04 [1080p] : https://drive.klop.me/file/fe26b1e675

Inside Edge S01E05 [1080p] : https://drive.klop.me/file/542105c536

Inside Edge S01E06 [1080p] : https://drive.klop.me/file/f91aaa6c3c

Inside Edge S01E07 [1080p] : https://drive.klop.me/file/dace668a81

Inside Edge S01E08 [1080p] : https://drive.klop.me/file/f2378dd2b6

Inside Edge S01E09 [1080p] : https://drive.klop.me/file/c488b9e3a6

Inside Edge S01E10 [1080p] : https://drive.klop.me/file/7c8f513c5b

0 0 vote
Article Rating
Subscribe
Notify of
guest
0 Comments
Inline Feedbacks
View all comments