Inside.2016.1080p.WEB-DL.DD5.1.H.264 3.05GB

Inside (2016)

Format : Matroska
Format version : Version 4
File size : 3.10 GiB
Duration : 1 h 28 min
Overall bit rate : 4 993 kb/s
Writing application : mkvmerge v12.0.0 (‘Trust / Lust’) 64bit
Writing library : libebml v1.3.4 + libmatroska v1.4.5

Video
ID : 1
Format : AVC
Format/Info : Advanced Video Codec
Format profile : [email protected]
Format settings : CABAC / 5 Ref Frames
Format settings, CABAC : Yes
Format settings, Reference frames : 5 frames
Codec ID : V_MPEG4/ISO/AVC
Duration : 1 h 28 min
Bit rate : 4 607 kb/s
Width : 1 918 pixels
Height : 800 pixels
Display aspect ratio : 2.40:1
Original display aspect ratio : 2.40:1
Frame rate mode : Constant
Frame rate : 23.976 FPS
Color space : YUV
Chroma subsampling : 4:2:0
Bit depth : 8 bits
Scan type : Progressive
Bits/(Pixel*Frame) : 0.125
Stream size : 2.86 GiB (92%)
Language : English
Default : Yes
Forced : No
Color range : Limited
Color primaries : BT.709
Transfer characteristics : BT.709
Matrix coefficients : BT.709

Audio
ID : 2
Format : AC-3
Format/Info : Audio Coding 3
Commercial name : Dolby Digital
Codec ID : A_AC3
Duration : 1 h 28 min
Bit rate mode : Constant
Bit rate : 384 kb/s
Channel(s) : 6 channels
Channel layout : L R C LFE Ls Rs
Sampling rate : 48.0 kHz
Frame rate : 31.250 FPS (1536 SPF)
Compression mode : Lossy
Delay relative to video : -42 ms
Stream size : 244 MiB (8%)
Language : English
Service kind : Complete Main
Default : Yes
Forced : No


vlcsnap-2020-06-09-10h13m27s665vlcsnap-2020-06-09-10h13m43s555vlcsnap-2020-06-09-10h14m57s371vlcsnap-2020-06-09-10h13m48s396vlcsnap-2020-06-09-10h13m59s108vlcsnap-2020-06-09-10h14m03s578vlcsnap-2020-06-09-10h14m10s915vlcsnap-2020-06-09-10h14m27s777vlcsnap-2020-06-09-10h14m32s796vlcsnap-2020-06-09-10h14m42s951
Gdrive Single Link+Download
https://bit.ly/30nI49q

Zupload.me Single Link+Download(Use Vpn To Open Link Download With Idm)
https://bit.ly/3f99kN6

0 0 vote
Article Rating
Subscribe
Notify of
guest
0 Comments
Inline Feedbacks
View all comments