Indiana Jones Collections (1981 To 2008) 1080p BluRay x264 {Hind-Eng DD 5.1 640 kbps} ESubs By~Hammer~

Indiana Jones Collections (1981 To 2008) 1080p BluRay x264 {Hind-Eng DD 5.1 640 kbps} ESubs By~Hammer~


Indiana Jones 1 (1981) 1080p BluRay x264 {Dual Audio} {Hindi-Eng DD 5.1 640 kbps} ESub By~Hammer~

General
Format                                   : Matroska
Format version                           : Version 4 / Version 2
File size                                : 5.07 GiB
Duration                                 : 1 h 55 min
Overall bit rate                         : 6 294 kb/s
Movie name                               : Indiana Jones 1 (1981) 1080p BluRay x264 {Dual Audio} {Hindi-Eng DD 5.1 640 kbps} ESub By~Hammer~
Bit rate                                 : 5 000 kb/s
Width                                    : 1 920 pixels
Height                                   : 816 pixels
Display aspect ratio                     : 2.35:1
Frame rate mode                          : Constant
Frame rate                               : 23.976 (24000/1001) FPS
Title                                    : ~EncodeR~Hammer~
Language                                 : English
Default                                  : Yes
Forced                                   : No

Audio #1
Format                                   : AC-3
Format/Info                              : Audio Coding 3
Codec ID                                 : A_AC3
Duration                                 : 1 h 55 min
Bit rate mode                            : Constant
Bit rate                                 : 640 kb/s
Channel(s)                               : 6 channels
Channel positions                        : Front: L C R, Side: L R, LFE
Sampling rate                            : 48.0 kHz
Frame rate                               : 31.250 FPS (1536 SPF)
Bit depth                                : 16 bits
Compression mode                         : Lossy
Stream size                              : 528 MiB (10%)
Title                                    : Hindi Org DD 5.1 640 kbps By~Hammer~
Language                                 : Hindi
Default                                  : Yes
Forced                                   : Yes

Audio #2
Format                                   : AC-3
Format/Info                              : Audio Coding 3
Codec ID                                 : A_AC3
Duration                                 : 1 h 55 min
Bit rate mode                            : Constant
Bit rate                                 : 640 kb/s
Channel(s)                               : 6 channels
Channel positions                        : Front: L C R, Side: L R, LFE
Sampling rate                            : 48.0 kHz
Frame rate                               : 31.250 FPS (1536 SPF)
Bit depth                                : 16 bits
Compression mode                         : Lossy
Stream size                              : 528 MiB (10%)
Title                                    : English BD 5.1 640 kbps By~Hammer~
Language                                 : English
Default                                  : No
Forced                                   : No

Text #1
Format                                   : PGS
Muxing mode                              : zlib
Codec ID                                 : S_HDMV/PGS
Codec ID/Info                            : Picture based subtitle format used on BDs/HD-DVDs
Duration                                 : 1 h 48 min
Bit rate                                 : 6 666 b/s
Count of elements                        : 2014
Stream size                              : 5.15 MiB (0%)
Title                                    : English PGS
Language                                 : English
Default                                  : Yes
Forced                                   : No







Indiana Jones 2 (1984) 1080p BluRay x264 {Dual Audio} {Hindi-Eng DD 5.1 640 kbps} ESub By~Hammer~

General
Format                                   : Matroska
Format version                           : Version 4 / Version 2
File size                                : 5.21 GiB
Duration                                 : 1 h 58 min
Overall bit rate                         : 6 280 kb/s
Movie name                               : Indiana Jones 2 (1984) 1080p BluRay x264 {Dual Audio} {Hindi-Eng DD 5.1 640 kbps} ESub By~Hammer~
Bit rate                                 : 5 000 kb/s
Width                                    : 1 920 pixels
Height                                   : 816 pixels
Display aspect ratio                     : 2.35:1
Frame rate mode                          : Constant
Frame rate                               : 23.976 (24000/1001) FPS
Title                                    : ~EncodeR~Hammer~
Language                                 : English
Default                                  : Yes
Forced                                   : No

Audio #1
Format                                   : AC-3
Format/Info                              : Audio Coding 3
Codec ID                                 : A_AC3
Duration                                 : 1 h 58 min
Bit rate mode                            : Constant
Bit rate                                 : 640 kb/s
Channel(s)                               : 6 channels
Channel positions                        : Front: L C R, Side: L R, LFE
Sampling rate                            : 48.0 kHz
Frame rate                               : 31.250 FPS (1536 SPF)
Bit depth                                : 16 bits
Compression mode                         : Lossy
Stream size                              : 543 MiB (10%)
Title                                    : Hindi Org DD 5.1 640 kbps By~Hammer~
Language                                 : Hindi
Default                                  : Yes
Forced                                   : Yes

Audio #2
Format                                   : AC-3
Format/Info                              : Audio Coding 3
Codec ID                                 : A_AC3
Duration                                 : 1 h 58 min
Bit rate mode                            : Constant
Bit rate                                 : 640 kb/s
Channel(s)                               : 6 channels
Channel positions                        : Front: L C R, Side: L R, LFE
Sampling rate                            : 48.0 kHz
Frame rate                               : 31.250 FPS (1536 SPF)
Bit depth                                : 16 bits
Compression mode                         : Lossy
Stream size                              : 542 MiB (10%)
Title                                    : English BD 5.1 640 kbps By~Hammer~
Language                                 : English
Service kind                             : Complete Main
Default                                  : No
Forced                                   : No

Text #1
Format                                   : PGS
Muxing mode                              : zlib
Codec ID                                 : S_HDMV/PGS
Codec ID/Info                            : Picture based subtitle format used on BDs/HD-DVDs
Duration                                 : 1 h 52 min
Bit rate                                 : 5 377 b/s
Count of elements                        : 1734
Stream size                              : 4.31 MiB (0%)
Title                                    : English PGS
Language                                 : English
Default                                  : Yes
Forced                                   : No







Indiana Jones 3 (1989) 1080p BluRay x264 {Dual Audio} {Hindi-Eng DD 5.1 640 kbps} ESub By~Hammer~

General
Format                                   : Matroska
Format version                           : Version 4 / Version 2
File size                                : 5.58 GiB
Duration                                 : 2 h 6 min
Overall bit rate                         : 6 295 kb/s
Movie name                               : Indiana Jones 3 (1989) 1080p BluRay x264 {Dual Audio} {Hindi-Eng DD 5.1 640 kbps} ESub By~Hammer~
Bit rate                                 : 5 000 kb/s
Width                                    : 1 920 pixels
Height                                   : 816 pixels
Display aspect ratio                     : 2.35:1
Frame rate mode                          : Constant
Frame rate                               : 23.976 (24000/1001) FPS
Title                                    : ~EncodeR~Hammer~
Language                                 : English
Default                                  : Yes
Forced                                   : No

Audio #1
Format                                   : AC-3
Format/Info                              : Audio Coding 3
Codec ID                                 : A_AC3
Duration                                 : 2 h 6 min
Bit rate mode                            : Constant
Bit rate                                 : 640 kb/s
Channel(s)                               : 6 channels
Channel positions                        : Front: L C R, Side: L R, LFE
Sampling rate                            : 48.0 kHz
Frame rate                               : 31.250 FPS (1536 SPF)
Bit depth                                : 16 bits
Compression mode                         : Lossy
Stream size                              : 581 MiB (10%)
Title                                    : Hindi Org DD 5.1 640 kbps By~Hammer~
Language                                 : Hindi
Default                                  : Yes
Forced                                   : Yes

Audio #2
Format                                   : AC-3
Format/Info                              : Audio Coding 3
Codec ID                                 : A_AC3
Duration                                 : 2 h 6 min
Bit rate mode                            : Constant
Bit rate                                 : 640 kb/s
Channel(s)                               : 6 channels
Channel positions                        : Front: L C R, Side: L R, LFE
Sampling rate                            : 48.0 kHz
Frame rate                               : 31.250 FPS (1536 SPF)
Bit depth                                : 16 bits
Compression mode                         : Lossy
Stream size                              : 581 MiB (10%)
Title                                    : English BD 5.1 640 kbps By~Hammer~
Language                                 : English
Default                                  : No
Forced                                   : No

Text #1
Format                                   : PGS
Muxing mode                              : zlib
Codec ID                                 : S_HDMV/PGS
Codec ID/Info                            : Picture based subtitle format used on BDs/HD-DVDs
Duration                                 : 1 h 58 min
Bit rate                                 : 7 541 b/s
Count of elements                        : 2388
Stream size                              : 6.37 MiB (0%)
Title                                    : English PGS
Language                                 : English
Default                                  : Yes
Forced                                   : No







Indiana Jones 4 (2008) 1080p BluRay x264 {Dual Audio} {Hindi-Eng DD 5.1 640 kbps} ESub By~Hammer~

General
Format                                   : Matroska
Format version                           : Version 4 / Version 2
File size                                : 5.38 GiB
Duration                                 : 2 h 2 min
Overall bit rate                         : 6 288 kb/s
Movie name                               : Indiana Jones 4 (2008) 1080p BluRay x264 {Dual Audio} {Hindi-Eng DD 5.1 640 kbps} ESub By~Hammer~
Bit rate                                 : 5 000 kb/s
Width                                    : 1 920 pixels
Height                                   : 800 pixels
Display aspect ratio                     : 2.40:1
Frame rate mode                          : Constant
Frame rate                               : 23.976 (24000/1001) FPS
Title                                    : ~EncodeR~Hammer~
Language                                 : English
Default                                  : Yes
Forced                                   : No

Audio #1
Format                                   : AC-3
Format/Info                              : Audio Coding 3
Codec ID                                 : A_AC3
Duration                                 : 2 h 2 min
Bit rate mode                            : Constant
Bit rate                                 : 640 kb/s
Channel(s)                               : 6 channels
Channel positions                        : Front: L C R, Side: L R, LFE
Sampling rate                            : 48.0 kHz
Frame rate                               : 31.250 FPS (1536 SPF)
Bit depth                                : 16 bits
Compression mode                         : Lossy
Delay relative to video                  : 1 s 500 ms
Stream size                              : 561 MiB (10%)
Title                                    : Hindi Org DD 5.1 640 kbps By~Hammer~
Language                                 : Hindi
Default                                  : Yes
Forced                                   : Yes

Audio #2
Format                                   : AC-3
Format/Info                              : Audio Coding 3
Codec ID                                 : A_AC3
Duration                                 : 2 h 2 min
Bit rate mode                            : Constant
Bit rate                                 : 640 kb/s
Channel(s)                               : 6 channels
Channel positions                        : Front: L C R, Side: L R, LFE
Sampling rate                            : 48.0 kHz
Frame rate                               : 31.250 FPS (1536 SPF)
Bit depth                                : 16 bits
Compression mode                         : Lossy
Stream size                              : 561 MiB (10%)
Title                                    : English BD 5.1 640 kbps By~Hammer~
Language                                 : English
Default                                  : No
Forced                                   : No

Text
Format                                   : PGS
Muxing mode                              : zlib
Codec ID                                 : S_HDMV/PGS
Codec ID/Info                            : Picture based subtitle format used on BDs/HD-DVDs
Duration                                 : 1 h 54 min
Bit rate                                 : 7 827 b/s
Count of elements                        : 2086
Stream size                              : 6.43 MiB (0%)
Title                                    : English PGS
Language                                 : English
Default                                  : Yes
Forced                                   : No







Indiana Jones 1 (1981)

Indiana Jones 2 (1984)

Indiana Jones 3 (1989)

Indiana Jones 4 (2018)

0 0 vote
Article Rating
Subscribe
Notify of
guest
4 Comments
Oldest
Newest Most Voted
Inline Feedbacks
View all comments
Karthick
Karthick
1 year ago

Sir please upload including tamil audio

Akshat
Akshat
1 year ago

Bro Happy New year and Bro Please upload -The Chronicles of Narnia TLTWTW (2005) Org Untouched DD+ 5.1 640kbps Hindi Audio By Hammer audio with the movie or Please ? ? send me the link. Here is my email address a

[email protected]

I am big fan of Narnia series and I loved your MIB INTERNATIONAL upload and Indiana Jones series. Bro please please please.

Akshat Sangwan
Akshat Sangwan
1 year ago

Bro Happy New year ? and bro please upload -The Chronicles of Narnia TLTWTW (2005) Org Untouched DD+ 5.1 640kbps Hindi Audio By Hammer with the movie or send the link to
[email protected]
I loved your MIB int. and Indiana Jones upload. Bro Please upload Please ?? ?? ?? ?? ?

Katper
Katper
1 year ago

thanks a ton..!