Inception 2010 Multi 2160p UHD Bluray x265 DTS-HDMA 5.1 [En+Hi]-DTOne | 21 GB | G-Drive

SPECS

Source : UHD Bluray

Format                                  : Matroska
File size                                : 24.4 GiB
Duration                                : 2 h 28 min
Overall bit rate mode                    : Variable
Overall bit rate                        : 23.6 Mb/s

Video
Format                                  : HEVC/x265
Commercial name                          : HDR
Bit rate                                : 18 Mb/s
Width                                    : 3 840 pixels
Height                                  : 1 598 pixels
Bit depth                                : 10 bits
Color primaries                          : BT.2020
Transfer characteristics                : PQ
Matrix coefficients                      : BT.2020 non-constant
Mastering display color primaries        : Display P3
Mastering display luminance              : min: 0.0050 cd/m2, max: 4000 cd/m2
Maximum Content Light Level              : 1538 cd/m2
Maximum Frame-Average Light Level        : 308 cd/m2

Audio #1
Format                                  : DTS XLL
Format/Info                              : Digital Theater Systems
Commercial name                          : DTS-HD Master Audio
Codec ID                                : A_DTS
Duration                                : 2 h 28 min
Bit rate mode                            : Variable
Bit rate                                : 3 821 kb/s
Channel(s)                              : 6 channels
Channel layout                          : C L R Ls Rs LFE
Sampling rate                            : 48.0 kHz
Frame rate                              : 93.750 FPS (512 SPF)
Bit depth                                : 24 bits
Compression mode                        : Lossless
Stream size                              : 3.95 GiB (16%)
Language                                : English
Default                                  : Yes
Forced                                  : No

Audio #2
ID                                      : 3
Format                                  : AC-3
Format/Info                              : Audio Coding 3
Commercial name                          : Dolby Digital
Codec ID                                : A_AC3
Duration                                : 2 h 28 min
Bit rate mode                            : Constant
Bit rate                                : 448 kb/s
Channel(s)                              : 6 channels
Channel layout                          : L R C LFE Ls Rs
Sampling rate                            : 48.0 kHz
Frame rate                              : 31.250 FPS (1536 SPF)
Bit depth                                : 16 bits
Compression mode                        : Lossy
Stream size                              : 474 MiB (2%)
Language                                : Hindi

Subs:
En

G- Drive Download 21 GB

G- Drive Download In Parts 4 GB

Inception.2010.Multi.2160p.UHD.Bluray.x265.DTS-HDMA.5.1.[En+Hi]-DTOne.part1.rar – 4.4 GB

Inception.2010.Multi.2160p.UHD.Bluray.x265.DTS-HDMA.5.1.[En+Hi]-DTOne.part2.rar – 4.4 GB

Inception.2010.Multi.2160p.UHD.Bluray.x265.DTS-HDMA.5.1.[En+Hi]-DTOne.part3.rar – 4.4 GB

Inception.2010.Multi.2160p.UHD.Bluray.x265.DTS-HDMA.5.1.[En+Hi]-DTOne.part4.rar – 4.4 GB

Inception.2010.Multi.2160p.UHD.Bluray.x265.DTS-HDMA.5.1.[En+Hi]-DTOne.part5.rar – 4.4 GB

Inception.2010.Multi.2160p.UHD.Bluray.x265.DTS-HDMA.5.1.[En+Hi]-DTOne.part6.rar – 2.5 GB

0 0 vote
Article Rating
Subscribe
Notify of
guest
0 Comments
Inline Feedbacks
View all comments