Inception-2010 2160p-HDR-5-1-x265-10bit (Hin+Eng)-Phun-Psyz-4Gb

The real-life 'Inception' helmet that can fool people into ...

Format : Matroska
Format version : Version 4
File size : 3.88 GiB
Duration : 2 h 28 min
Overall bit rate : 3 745 kb/s
Encoded date : UTC 2020-05-04 13:21:27
Writing application : mkvmerge v37.0.0 (‘Leave It’) 64-bit
Writing library : libebml v1.3.9 + libmatroska v1.5.2 / Lavf58.20.100
Video
ID : 1
Format : HEVC
Format/Info : High Efficiency Video Coding
Format profile : Main [email protected]@High
Codec ID : V_MPEGH/ISO/HEVC
Duration : 2 h 28 min
Bit rate : 2 845 kb/s
Width : 3 840 pixels
Height : 1 600 pixels
Display aspect ratio : 2.40:1
Frame rate mode : Constant
Frame rate : 23.976 (24000/1001) FPS
Color space : YUV
Chroma subsampling : 4:2:0
Bit depth : 10 bits
Bits/(Pixel*Frame) : 0.019
Stream size : 2.94 GiB (76%)
Writing library : x265 2.9:[Windows][GCC 7.1.0][64 bit] 10bit
Encoding settings : cpuid=1049583 / frame-threads=5 / numa-pools=32,0 / wpp / no-pmode / no-pme / no-psnr / no-ssim / log-level=2 / input-csp=1 / input-res=3840×1600 / interlace=0 / total-frames=0 / level-idc=50 / high-tier=1 / uhd-bd=0 / ref=1 / no-allow-non-conformance / no-repeat-headers / annexb / no-aud / no-hrd / info / hash=0 / no-temporal-layers / open-gop / min-keyint=24 / keyint=240 / gop-lookahead=0 / bframes=0 / b-adapt=0 / no-b-pyramid / bframe-bias=0 / rc-lookahead=8 / lookahead-slices=0 / scenecut=100 / radl=0 / no-intra-refresh / ctu=32 / min-cu-size=16 / no-rect / no-amp / max-tu-size=32 / tu-inter-depth=3 / tu-intra-depth=3 / limit-tu=4 / rdoq-level=2 / dynamic-rd=0.00 / no-ssim-rd / signhide / no-tskip / nr-intra=0 / nr-inter=0 / no-constrained-intra / strong-intra-smoothing / max-merge=4 / limit-refs=1 / limit-modes / me=2 / subme=4 / merange=57 / temporal-mvp / weightp / weightb / no-analyze-src-pics / deblock=6:6 / sao / no-sao-non-deblock / rd=1 / no-early-skip / rskip / no-fast-intra / no-tskip-fast / no-cu-lossless / b-intra / no-splitrd-skip / rdpenalty=0 / psy-rd=0.00 / psy-rdoq=0.00 / no-rd-refine / no-lossless / cbqpoffs=-6 / crqpoffs=-2 / rc=crf / crf=27.5 / qcomp=0.60 / qpstep=4 / stats-write=0 / stats-read=0 / vbv-maxrate=100000 / vbv-bufsize=100000 / vbv-init=0.9 / crf-max=0.0 / crf-min=0.0 / ipratio=1.40 / aq-mode=3 / aq-strength=1.20 / cutree / zone-count=0 / no-strict-cbr / qg-size=32 / no-rc-grain / qpmax=69 / qpmin=0 / no-const-vbv / sar=1 / overscan=0 / videoformat=5 / range=0 / colorprim=9 / transfer=16 / colormatrix=9 / chromaloc=0 / display-window=0 / max-cll=0,0 / min-luma=0 / max-luma=1023 / log2-max-poc-lsb=8 / vui-timing-info / vui-hrd-info / slices=1 / no-opt-qp-pps / no-opt-ref-list-length-pps / no-multi-pass-opt-rps / scenecut-bias=0.01 / no-opt-cu-delta-qp / no-aq-motion / no-hdr / no-hdr-opt / no-dhdr10-opt / no-idr-recovery-sei / analysis-reuse-level=5 / scale-factor=0 / refine-intra=0 / refine-inter=0 / refine-mv=0 / no-limit-sao / ctu-info=0 / no-lowpass-dct / refine-mv-type=0 / copy-pic=1 / max-ausize-factor=1.0 / no-dynamic-refine / no-single-sei
Default : Yes
Forced : No
Color range : Limited
Color primaries : BT.2020
Transfer characteristics : PQ
Matrix coefficients : BT.2020 non-constant
Audio #1
ID : 2
Format : AC-3
Format/Info : Audio Coding 3
Commercial name : Dolby Digital
Codec ID : A_AC3
Duration : 2 h 28 min
Bit rate mode : Constant
Bit rate : 320 kb/s
Channel(s) : 6 channels
Channel layout : L R C LFE Ls Rs
Sampling rate : 48.0 kHz
Frame rate : 31.250 FPS (1536 SPF)
Compression mode : Lossy
Delay relative to video : -5 ms
Stream size : 339 MiB (9%)
Title : Surround
Language : English
Service kind : Complete Main
Default : Yes
Forced : No
Audio #2
ID : 33
Format : AC-3
Format/Info : Audio Coding 3
Commercial name : Dolby Digital
Codec ID : A_AC3
Duration : 2 h 28 min
Bit rate mode : Constant
Bit rate : 224 kb/s
Channel(s) : 2 channels
Channel layout : L R
Sampling rate : 48.0 kHz
Frame rate : 31.250 FPS (1536 SPF)
Compression mode : Lossy
Delay relative to video : -5 ms
Stream size : 237 MiB (6%)
Title : Track 2
Language : Hindi
Service kind : Complete Main
Default : No
Forced : Yes
Text #1
ID : 3
Format : PGS
Muxing mode : zlib
Codec ID : S_HDMV/PGS
Codec ID/Info : Picture based subtitle format used on BDs/HD-DVDs
Duration : 2 h 27 min
Bit rate : 32.7 kb/s
Count of elements : 3476
Stream size : 34.4 MiB (1%)
Language : English
Default : No
Forced : No
Text #2
ID : 4
Format : PGS
Muxing mode : zlib
Codec ID : S_HDMV/PGS
Codec ID/Info : Picture based subtitle format used on BDs/HD-DVDs
Duration : 2 h 18 min
Bit rate : 22.8 kb/s
Count of elements : 3220
Stream size : 22.6 MiB (1%)
Language : Japanese
Default : No
Forced : No
Text #3
ID : 5
Format : PGS
Muxing mode : zlib
Codec ID : S_HDMV/PGS
Codec ID/Info : Picture based subtitle format used on BDs/HD-DVDs
Duration : 1 s 126 ms
Bit rate : 53.1 kb/s
Count of elements : 2
Stream size : 7.30 KiB (0%)
Language : Japanese
Default : No
Forced : No
Text #4
ID : 6
Format : PGS
Muxing mode : zlib
Codec ID : S_HDMV/PGS
Codec ID/Info : Picture based subtitle format used on BDs/HD-DVDs
Duration : 2 h 26 min
Bit rate : 24.1 kb/s
Count of elements : 3482
Stream size : 25.2 MiB (1%)
Language : French
Default : No
Forced : No
Text #5
ID : 7
Format : PGS
Muxing mode : zlib
Codec ID : S_HDMV/PGS
Codec ID/Info : Picture based subtitle format used on BDs/HD-DVDs
Duration : 2 h 27 min
Bit rate : 39.1 kb/s
Count of elements : 3630
Stream size : 41.1 MiB (1%)
Language : German
Default : No
Forced : No
Text #6
ID : 8
Format : PGS
Muxing mode : zlib
Codec ID : S_HDMV/PGS
Codec ID/Info : Picture based subtitle format used on BDs/HD-DVDs
Duration : 2 h 27 min
Bit rate : 30.3 kb/s
Count of elements : 3480
Stream size : 31.9 MiB (1%)
Language : Italian
Default : No
Forced : No
Text #7
ID : 9
Format : PGS
Muxing mode : zlib
Codec ID : S_HDMV/PGS
Codec ID/Info : Picture based subtitle format used on BDs/HD-DVDs
Duration : 2 h 26 min
Bit rate : 28.5 kb/s
Count of elements : 3201
Stream size : 29.8 MiB (1%)
Language : Spanish
Default : No
Forced : No
Text #8
ID : 10
Format : PGS
Muxing mode : zlib
Codec ID : S_HDMV/PGS
Codec ID/Info : Picture based subtitle format used on BDs/HD-DVDs
Duration : 2 h 26 min
Bit rate : 25.2 kb/s
Count of elements : 2734
Stream size : 26.4 MiB (1%)
Language : Dutch
Default : No
Forced : No
Text #9
ID : 11
Format : PGS
Muxing mode : zlib
Codec ID : S_HDMV/PGS
Codec ID/Info : Picture based subtitle format used on BDs/HD-DVDs
Duration : 2 h 26 min
Bit rate : 25.2 kb/s
Count of elements : 3593
Stream size : 26.3 MiB (1%)
Language : Chinese
Default : No
Forced : No
Text #10
ID : 12
Format : PGS
Muxing mode : zlib
Codec ID : S_HDMV/PGS
Codec ID/Info : Picture based subtitle format used on BDs/HD-DVDs
Duration : 2 h 26 min
Bit rate : 27.5 kb/s
Count of elements : 3332
Stream size : 28.8 MiB (1%)
Language : Chinese
Default : No
Forced : No
Text #11
ID : 13
Format : PGS
Muxing mode : zlib
Codec ID : S_HDMV/PGS
Codec ID/Info : Picture based subtitle format used on BDs/HD-DVDs
Duration : 2 h 26 min
Bit rate : 22.2 kb/s
Count of elements : 3245
Stream size : 23.3 MiB (1%)
Language : Chinese
Default : No
Forced : No
Text #12
ID : 14
Format : PGS
Muxing mode : zlib
Codec ID : S_HDMV/PGS
Codec ID/Info : Picture based subtitle format used on BDs/HD-DVDs
Duration : 2 h 26 min
Bit rate : 18.4 kb/s
Count of elements : 3099
Stream size : 19.3 MiB (0%)
Language : Korean
Default : No
Forced : No
Text #13
ID : 15
Format : PGS
Muxing mode : zlib
Codec ID : S_HDMV/PGS
Codec ID/Info : Picture based subtitle format used on BDs/HD-DVDs
Duration : 2 h 26 min
Bit rate : 27.0 kb/s
Count of elements : 3102
Stream size : 28.3 MiB (1%)
Language : Spanish
Default : No
Forced : No
Text #14
ID : 16
Format : PGS
Muxing mode : zlib
Codec ID : S_HDMV/PGS
Codec ID/Info : Picture based subtitle format used on BDs/HD-DVDs
Duration : 2 h 26 min
Bit rate : 29.2 kb/s
Count of elements : 3205
Stream size : 30.6 MiB (1%)
Language : Portuguese
Default : No
Forced : No
Text #15
ID : 17
Format : PGS
Muxing mode : zlib
Codec ID : S_HDMV/PGS
Codec ID/Info : Picture based subtitle format used on BDs/HD-DVDs
Duration : 2 h 26 min
Bit rate : 15.0 kb/s
Count of elements : 3328
Stream size : 15.7 MiB (0%)
Language : Arabic
Default : No
Forced : No
Text #16
ID : 18
Format : PGS
Muxing mode : zlib
Codec ID : S_HDMV/PGS
Codec ID/Info : Picture based subtitle format used on BDs/HD-DVDs
Duration : 2 h 26 min
Bit rate : 27.6 kb/s
Count of elements : 3105
Stream size : 28.9 MiB (1%)
Language : Croatian
Default : No
Forced : No
Text #17
ID : 19
Format : PGS
Muxing mode : zlib
Codec ID : S_HDMV/PGS
Codec ID/Info : Picture based subtitle format used on BDs/HD-DVDs
Duration : 2 h 26 min
Bit rate : 22.5 kb/s
Count of elements : 2549
Stream size : 23.6 MiB (1%)
Language : Czech
Default : No
Forced : No
Text #18
ID : 20
Format : PGS
Muxing mode : zlib
Codec ID : S_HDMV/PGS
Codec ID/Info : Picture based subtitle format used on BDs/HD-DVDs
Duration : 2 h 26 min
Bit rate : 24.4 kb/s
Count of elements : 2526
Stream size : 25.5 MiB (1%)
Language : Danish
Default : No
Forced : No
Text #19
ID : 21
Format : PGS
Muxing mode : zlib
Codec ID : S_HDMV/PGS
Codec ID/Info : Picture based subtitle format used on BDs/HD-DVDs
Duration : 2 h 26 min
Bit rate : 29.3 kb/s
Count of elements : 2762
Stream size : 30.7 MiB (1%)
Language : Finnish
Default : No
Forced : No
Text #20
ID : 22
Format : PGS
Muxing mode : zlib
Codec ID : S_HDMV/PGS
Codec ID/Info : Picture based subtitle format used on BDs/HD-DVDs
Duration : 2 h 26 min
Bit rate : 27.8 kb/s
Count of elements : 3172
Stream size : 29.1 MiB (1%)
Language : Greek
Default : No
Forced : No
Text #21
ID : 23
Format : PGS
Muxing mode : zlib
Codec ID : S_HDMV/PGS
Codec ID/Info : Picture based subtitle format used on BDs/HD-DVDs
Duration : 2 h 26 min
Bit rate : 22.4 kb/s
Count of elements : 3224
Stream size : 23.5 MiB (1%)
Default : No
Forced : No
Text #22
ID : 24
Format : PGS
Muxing mode : zlib
Codec ID : S_HDMV/PGS
Codec ID/Info : Picture based subtitle format used on BDs/HD-DVDs
Duration : 2 h 26 min
Bit rate : 25.5 kb/s
Count of elements : 3069
Stream size : 26.7 MiB (1%)
Language : Hungarian
Default : No
Forced : No
Text #23
ID : 25
Format : PGS
Muxing mode : zlib
Codec ID : S_HDMV/PGS
Codec ID/Info : Picture based subtitle format used on BDs/HD-DVDs
Duration : 2 h 26 min
Bit rate : 25.8 kb/s
Count of elements : 3142
Stream size : 27.0 MiB (1%)
Language : Norwegian
Default : No
Forced : No
Text #24
ID : 26
Format : PGS
Muxing mode : zlib
Codec ID : S_HDMV/PGS
Codec ID/Info : Picture based subtitle format used on BDs/HD-DVDs
Duration : 2 h 26 min
Bit rate : 24.1 kb/s
Count of elements : 2993
Stream size : 25.3 MiB (1%)
Language : Polish
Default : No
Forced : No
Text #25
ID : 27
Format : PGS
Muxing mode : zlib
Codec ID : S_HDMV/PGS
Codec ID/Info : Picture based subtitle format used on BDs/HD-DVDs
Duration : 2 h 26 min
Bit rate : 29.7 kb/s
Count of elements : 3081
Stream size : 31.1 MiB (1%)
Language : Portuguese
Default : No
Forced : No
Text #26
ID : 28
Format : PGS
Muxing mode : zlib
Codec ID : S_HDMV/PGS
Codec ID/Info : Picture based subtitle format used on BDs/HD-DVDs
Duration : 2 h 26 min
Bit rate : 27.1 kb/s
Count of elements : 3141
Stream size : 28.4 MiB (1%)
Language : Romanian
Default : No
Forced : No
Text #27
ID : 29
Format : PGS
Muxing mode : zlib
Codec ID : S_HDMV/PGS
Codec ID/Info : Picture based subtitle format used on BDs/HD-DVDs
Duration : 2 h 26 min
Bit rate : 28.5 kb/s
Count of elements : 3227
Stream size : 29.9 MiB (1%)
Language : Russian
Default : No
Forced : No
Text #28
ID : 30
Format : PGS
Muxing mode : zlib
Codec ID : S_HDMV/PGS
Codec ID/Info : Picture based subtitle format used on BDs/HD-DVDs
Duration : 2 h 26 min
Bit rate : 26.1 kb/s
Count of elements : 3060
Stream size : 27.3 MiB (1%)
Language : Swedish
Default : No
Forced : No
Text #29
ID : 31
Format : PGS
Muxing mode : zlib
Codec ID : S_HDMV/PGS
Codec ID/Info : Picture based subtitle format used on BDs/HD-DVDs
Duration : 2 h 26 min
Bit rate : 26.8 kb/s
Count of elements : 3185
Stream size : 28.0 MiB (1%)
Language : Thai
Default : No
Forced : No
Text #30
ID : 32
Format : PGS
Muxing mode : zlib
Codec ID : S_HDMV/PGS
Codec ID/Info : Picture based subtitle format used on BDs/HD-DVDs
Duration : 2 h 26 min
Bit rate : 28.2 kb/s
Count of elements : 3156
Stream size : 29.6 MiB (1%)
Language : Turkish
Default : No
Forced : No
Menu
00:00:00.000 : :Chapter 1
00:11:41.910 : :Chapter 2
00:21:37.505 : :Chapter 3
00:31:20.504 : :Chapter 4
00:41:22.397 : :Chapter 5
00:51:13.904 : :Chapter 6
01:01:21.720 : :Chapter 7
01:10:29.851 : :Chapter 8
01:22:15.597 : :Chapter 9
01:31:52.757 : :Chapter 10
01:40:38.699 : :Chapter 11
01:51:22.342 : :Chapter 12
02:00:54.581 : :Chapter 13
02:10:09.051 : :Chapter 14
02:20:55.447 : :Chapter 15


Gdrive Single Link+Download
https://bit.ly/2yxy7e0

0 0 vote
Article Rating
Subscribe
Notify of
guest
1 Comment
Oldest
Newest Most Voted
Inline Feedbacks
View all comments
Prasanta Roy
Prasanta Roy
3 months ago

Link not working pls fix it