Hum.Tum.2004.1080p.BDRip.x264 10Gb

Image result for hum tum

Complete name :Hum.Tum.2004.1080p.BDRip.x264.mkv
Format : Matroska
Format version : Version 4
File size : 10.0 GiB
Duration : 2 h 22 min
Overall bit rate : 10.0 Mb/s
Encoded date : UTC 2020-03-23 04:36:31
Writing application : mkvmerge v6.1.0 (‘Old Devil’) built on Mar 2 2013 14:32:37
Writing library : libebml v1.3.0 + libmatroska v1.4.0

Video
ID : 1
Format : AVC
Format/Info : Advanced Video Codec
Format profile : [email protected]
Format settings : CABAC / 4 Ref Frames
Format settings, CABAC : Yes
Format settings, Reference frames : 4 frames
Codec ID : V_MPEG4/ISO/AVC
Duration : 2 h 22 min
Bit rate : 8 521 kb/s
Width : 1 920 pixels
Height : 816 pixels
Display aspect ratio : 2.35:1
Frame rate mode : Constant
Frame rate : 24.000 FPS
Color space : YUV
Chroma subsampling : 4:2:0
Bit depth : 8 bits
Scan type : Progressive
Bits/(Pixel*Frame) : 0.227
Stream size : 8.30 GiB (83%)
Writing library : x264 core 116 r2074 2641b9e
Encoding settings : cabac=1 / ref=4 / deblock=1:-2:-2 / analyse=0x3:0x133 / me=umh / subme=7 / psy=1 / psy_rd=1.10:0.05 / mixed_ref=1 / me_range=16 / chroma_me=1 / trellis=2 / 8x8dct=1 / cqm=0 / deadzone=21,11 / fast_pskip=1 / chroma_qp_offset=-3 / threads=12 / sliced_threads=0 / nr=0 / decimate=1 / interlaced=0 / bluray_compat=0 / constrained_intra=0 / bframes=5 / b_pyramid=2 / b_adapt=1 / b_bias=0 / direct=3 / weightb=1 / open_gop=0 / weightp=2 / keyint=250 / keyint_min=24 / scenecut=40 / intra_refresh=0 / rc_lookahead=40 / rc=2pass / mbtree=1 / bitrate=8521 / ratetol=1.0 / qcomp=0.60 / qpmin=10 / qpmax=69 / qpstep=4 / cplxblur=20.0 / qblur=0.5 / ip_ratio=1.40 / aq=1:0.80
Language : English
Default : Yes
Forced : No

Audio
ID : 2
Format : DTS
Format/Info : Digital Theater Systems
Codec ID : A_DTS
Duration : 2 h 22 min
Bit rate mode : Constant
Bit rate : 1 509 kb/s
Channel(s) : 6 channels
Channel layout : C L R Ls Rs LFE
Sampling rate : 48.0 kHz
Frame rate : 93.750 FPS (512 SPF)
Bit depth : 16 bits
Compression mode : Lossy
Stream size : 1.50 GiB (15%)
Title : Original
Language : Hindi
Default : No
Forced : No

Text
ID : 3
Format : UTF-8
Codec ID : S_TEXT/UTF8
Codec ID/Info : UTF-8 Plain Text
Language : Hindi
Default : No
Forced : No

Menu
00:00:00.000 : en:Chapter01
00:02:51.000 : en:Chapter02
00:04:22.250 : en:Chapter03
00:13:01.750 : en:Chapter04
00:19:17.791 : en:Chapter05
00:25:17.166 : en:Chapter06
00:27:12.000 : en:Chapter07
00:28:17.000 : en:Chapter08
00:31:30.791 : en:Chapter09
00:32:18.833 : en:Chapter10
00:37:34.708 : en:Chapter11
00:39:28.375 : en:Chapter12
00:44:00.000 : en:Chapter13
00:48:45.333 : en:Chapter14
00:51:12.958 : en:Chapter15
00:54:22.666 : en:Chapter16
00:55:40.416 : en:Chapter17
00:57:54.333 : en:Chapter18
00:59:40.166 : en:Chapter19
01:02:07.833 : en:Chapter20
01:08:06.500 : en:Chapter21
01:12:19.166 : en:Chapter22
01:16:48.416 : en:Chapter23
01:24:55.000 : en:Chapter24
01:27:45.500 : en:Chapter25
01:28:29.958 : en:Chapter26
01:33:05.833 : en:Chapter27
01:38:10.333 : en:Chapter28
01:53:20.791 : en:Chapter29
01:59:05.000 : en:Chapter30
02:06:03.375 : en:Chapter31
02:10:20.708 : en:Chapter32
02:13:59.458 : en:Chapter33
02:19:24.291 : en:Chapter34
02:22:43.875 : en:Chapter35

892e4b84c1d4e43d2e20ba7ed6aa9a20.gif
vlcsnap-2020-03-23-01h56m47s141vlcsnap-2020-03-23-01h56m37s805vlcsnap-2020-03-23-01h56m55s803vlcsnap-2020-03-23-01h57m11s390vlcsnap-2020-03-23-01h57m19s539vlcsnap-2020-03-23-01h57m24s026vlcsnap-2020-03-23-01h57m30s740vlcsnap-2020-03-23-01h57m39s163vlcsnap-2020-03-23-01h57m51s006vlcsnap-2020-03-23-01h58m10s660.png

Gdrive Lin+Download
https://bit.ly/2QBZXvo

ulozto.net single link+ Download
https://bit.ly/2Uw8Doe

0 0 vote
Article Rating
Subscribe
Notify of
guest
1 Comment
Oldest
Newest Most Voted
Inline Feedbacks
View all comments
Himanshu Joshi
Himanshu Joshi
1 year ago

Please upload Dhoom 2004 bollywood movie full HD 1080p or 720p quality approximately 3 to 4 gb size but please upload in good print quality please do upload Dhoom 2004 bollywood movie