Hum Hain Rahi Pyar Ke (1993) Hindi 1080p WebHD AVC {Music Video} ESuBS By-DusIcTv

Hum Hain Rahi Pyar Ke (1993) Hindi 1080p WebHD AVC {Music Video} ESuBS By-DusIcTv

:details:

Format                         : Matroska
Format version                 : Version 4
File size                      : 2.12 GB
Overall bit rate               : 10.1 Mb/s
Writing application   : mkvmerge v35.0.0 (‘All The Love In The World’) 64-bit
Writing library  : libebml v1.3.9 + libmatroska v1.5.2

Video
ID                             : 3
Format                         : AVC
Format/Info                    : Advanced Video Codec
Format profile                 : [email protected]
Format settings                : CABAC / 4 Ref Frames
Format settings, CABAC         : Yes
Format settings, Reference fra : 4 frames
Codec ID                       : V_MPEG4/ISO/AVC
Bit rate mode                  : Constant
Bit rate                       : 10000 kb/s
Width                          : 1920 pixels
Height                         : 816 pixels
Display aspect ratio           : 2.25:1
Frame rate mode                : Constant
Frame rate                     : 25.000 FPS
Color space                    : YUV
Chroma subsampling             : 4:2:0
Bit depth                      : 8 bits
Scan type                      : Progressive
Bits/(Pixel*Frame)             : 0.255
Stream size                    : 358 MiB (99%)
Title                          : DusIcTv
Language                       : English
Default                        : Yes
Forced                         : No
Color range                    : Limited
Color primaries                : BT.709
Transfer characteristics       : BT.709
Matrix coefficients            : BT.709

Audio
ID                             : 1
Format                         : AAC LC
Format/Info                    : Advanced Audio Codec
Codec ID                       : A_AAC-2
Bit rate                       : 125 kb/s
Channel(s)                     : 2 channels
Channel layout                 : L R
Sampling rate                  : 48.0 kHz
Frame rate                     : 46.875 FPS (1024 SPF)
Compression mode               : Lossy
Delay relative to video        : 11 ms
Stream size                    : 4.52 MiB (1%)
Title                          : DusIcTv
Language                       : English
Default                        : Yes
Forced                         : No

Text
ID                             : 2
Format                         : UTF-8
Codec ID                       : S_TEXT/UTF8
Codec ID/Info                  : UTF-8 Plain Text
Bit rate                       : 37 b/s
Count of elements              : 26
Stream size                    : 1.07 KiB (0%)
Default                        : Yes
Forced                         : No

:screens:













 

:download2:
01-Bambai Se Gayi Poona [By-DusIcTv].mkv   265.23 MB

https://thefileslocker.com/ua9s62z401xp.html

02-Yunhi Kat Jaayega Safar Saath [By-DusIcTv].mkv   362.20 MB

https://thefileslocker.com/7sl7nfotpphv.html

03-Mujhse Mohabbat Ka Izhar [By-DusIcTv].mkv   353.93 MB

https://thefileslocker.com/v8bli762dxem.html

04-Woh Meri Neend Mera Chain Mujhe [By-DusIcTv].mkv   380.05 MB

https://thefileslocker.com/mvp2jv4gftdu.html

05-Ghunghat Ki Aaad Se Dilbar Ka [By-DusIcTv].mkv   395.96 MB

https://thefileslocker.com/edvbskvscweu.html

06-Chikni Soorat Tu Kahan Tha [By-DusIcTv].mkv   284.67 MB

https://thefileslocker.com/xzfeujbj23a7.html

07-Yunhi Kat Jaayega Safar Saath (II) [By-DusIcTv].mkv   134.01 MB

https://thefileslocker.com/n0wqcvr2m1l1.html

https://thefileslocker.com/ljqqzf0jbg80.html
https://uptobox.com/6a3v58nnrdv7

0 0 vote
Article Rating
Subscribe
Notify of
guest
1 Comment
Oldest
Newest Most Voted
Inline Feedbacks
View all comments
Katper
Katper
1 year ago

thanks a bunch