Housefull 4 (2019) Untouched 1080p WEB-DL AVC AAC – ESUB ~ Ranvijay – DusIcTv | G- Drive | 2.44 GB |

Housefull 4 (2019) 2h 25min | Action, Comedy, Fantasy | 25 October 2019 (India) Summary: A set of three brothers are due to marry a set of three sisters, until one of the brothers starts to realize that they are all reincarnations from 600 years earlier and the wrong couples are about to get married.
Countries: IndiaLanguages: Hindi

Housefull 4 (2019) Untouched 1080p WEB-DL AVC AAC – ESUB ~ Ranvijay – DusIcTv

General

Format                                   : Matroska
Format version                           : Version 4 / Version 2
File size                                : 2.44 GiB
Duration                                 : 2 h 21 min
Overall bit rate                         : 2 461 kb/s
Movie name                               : Housefull 4 (2019) Untouched 1080p WEB-DL AVC AAC – ESUB ~ Ranvijay

Video
ID                                       : 1
Format                                   : AVC
Format/Info                              : Advanced Video Codec
Format profile                           : [email protected]
Format settings                          : CABAC / 4 Ref Frames
Format settings, CABAC                   : Yes
Format settings, RefFrames               : 4 frames
Format settings, GOP                     : M=5, N=48
Codec ID                                 : V_MPEG4/ISO/AVC
Duration                                 : 2 h 21 min
Bit rate                                 : 2 394 kb/s
Width                                    : 1 920 pixels
Height                                   : 1 080 pixels
Display aspect ratio                     : 16:9
Frame rate mode                          : Constant
Frame rate                               : 24.000 FPS
Color space                              : YUV
Chroma subsampling                       : 4:2:0
Bit depth                                : 8 bits
Scan type                                : Progressive
Bits/(Pixel*Frame)                       : 0.048
Stream size                              : 2.37 GiB (97%)
Title                                    : ~Ranvijay~

Audio
ID                                       : 2
Format                                   : AAC
Format/Info                              : Advanced Audio Codec
Format profile                           : LC
Codec ID                                 : A_AAC-2
Duration                                 : 2 h 21 min
Bit rate                                 : 64.5 kb/s
Channel(s)                               : 2 channels
Channel positions                        : Front: L R
Sampling rate                            : 48.0 kHz
Frame rate                               : 46.875 FPS (1024 SPF)
Compression mode                         : Lossy
Stream size                              : 65.4 MiB (3%)
Title                                    : ~Ranvijay~
Language                                 : Hindi
Default                                  : Yes
Forced                                   : Yes

Text
ID                                       : 3
Format                                   : UTF-8
Codec ID                                 : S_TEXT/UTF8
Codec ID/Info                            : UTF-8 Plain Text
Duration                                 : 2 h 14 min
Bit rate                                 : 54 b/s
Count of elements                        : 1858
Stream size                              : 53.9 KiB (0%)
Title                                    : ~Ranvijay~
Language                                 : English
Default                                  : Yes
Forced                                   : Yes

           

https://thefileslocker.com/szhaiqandxyh.html

https://sharer.pw/file/rNEV_NGcrqt

https://drive.klop.me/file/7563e5cb0a

0 0 vote
Article Rating
Subscribe
Notify of
guest
1 Comment
Oldest
Newest Most Voted
Inline Feedbacks
View all comments
S I
S I
8 months ago

This isn’t ripped from iTunes. I want the one from iTunes please (because of DD 5.1).