HouseFull (2010) (MUSIC VIDEO ALBUM) Untouched-BD50 DTS-HDMA 5.1 ESuBS By-DusIcTv

General
ID : 1 (0x1)
Format : BDAV
Format : M2Ts
Format/Info : Blu-ray Video
File size : 5.42 GB
Overall bit rate mode : Variable
Overall bit rate : 36.4 Mb/s
Maximum Overall bit rate : 35.5 Mb/s

Video
ID : 4113 (0x1011)
Menu ID : 1 (0x1)
Format : AVC
Format/Info : Advanced Video Codec
Format profile : [email protected]
Format settings : CABAC / 4 Ref Frames
Format settings, CABAC : Yes
Format settings, ReFrames : 4 frames
Codec ID : 27
Bit rate mode : Variable
Maximum bit rate : 33.0 Mb/s
Width : 1 920 pixels
Height : 1 080 pixels
Display aspect ratio : 16:9
Frame rate : 24.000 FPS
Color space : YUV
Chroma subsampling : 4:2:0
Bit depth : 8 bits
Scan type : Progressive
Color range : Limited
Color primaries : BT.709
Transfer characteristics : BT.709
Matrix coefficients : BT.709

Audio #1
ID : 4352 (0x1100)
Menu ID : 1 (0x1)
Format : DTS XLL
Format/Info : Digital Theater Systems
Commercial name : DTS-HD Master Audio
Muxing mode : Stream extension
Codec ID : 134
Bit rate mode : Variable
Channel(s) : 6 channels
Channel layout : C L R Ls Rs LFE
Sampling rate : 48.0 kHz
Frame rate : 93.750 FPS (512 SPF)
Bit depth : 24 bits
Compression mode : Lossless
Delay relative to video : -7 ms

Audio #2
ID : 4353 (0x1101)
Menu ID : 1 (0x1)
Format : AC-3
Format/Info : Audio Coding 3
Commercial name : Dolby Digital
Codec ID : 129
Bit rate mode : Constant
Bit rate : 448 kb/s
Channel(s) : 6 channels
Channel layout : L R C LFE Ls Rs
Sampling rate : 48.0 kHz
Frame rate : 31.250 FPS (1536 SPF)
Bit depth : 16 bits
Compression mode : Lossy
Delay relative to video : 15 ms
Stream size : 6.20 MiB (1%)
Service kind : Complete Main

Audio #3
ID : 6656 (0x1A00)
Menu ID : 1 (0x1)
Format : DTS LBR
Format/Info : Digital Theater Systems
Commercial name : DTS Express
Codec ID : 162
Bit rate mode : Constant
Bit rate : 192 kb/s
Channel(s) : 2 channels
Channel layout : L R
Sampling rate : 48.0 kHz
Bit depth : 24 bits
Compression mode : Lossy
Delay relative to video : 4 ms
Stream size : 2.65 MiB (1%)

Text #1
ID : 4608 (0x1200)
Menu ID : 1 (0x1)
Format : PGS
Codec ID : 144
Delay relative to video : 250 ms

Text #2
ID : 4609 (0x1201)
Menu ID : 1 (0x1)
Format : PGS
Codec ID : 144
Delay relative to video : 250

01-Loser 1 [By-DusIcTv].m2ts – 504.5 MB

02-Loser 2 [By-DusIcTv].m2ts – 471.7 MB

03-I Don_t Know What To Do [By-DusIcTv].m2ts – 763.9 MB

04-Loser 3 [By-DusIcTv].m2ts – 215.2 MB

05-Oh Girl You_re Mine [By-DusIcTv].m2ts – 945.1 MB

06-Papa Jag Jayega [By-DusIcTv].m2ts – 838.2 MB

07-Aapka Kya Hoga Janabe Ali Dhanno [By-DusIcTv].m2ts – 1.4 GB

08-Loser End Roll [By-DusIcTv].m2ts – 416.1 MB

 

0 0 vote
Article Rating
Subscribe
Notify of
guest
0 Comments
Inline Feedbacks
View all comments