HouseFull 2 (2012) (MUSIC VIDEO ALBUM) Untouched-BD50 DTS-HDMA 7.1 ESuBS By-DusIcTv

Media info

General
ID                          : 1 (0x1)
Format                      : BDAV
Format                      : M2ts
Format/Info                 : Blu-ray Video
File size                   : 5.38 GB
Overall bit rate mode       : Variable
Overall bit rate            : 40.9 Mb/s
Maximum Overall bit rate    : 35.5 Mb/s

Video
ID                          : 4113 (0x1011)
Menu ID                     : 1 (0x1)
Format                      : AVC
Format/Info                 : Advanced Video Codec
Format profile              : [email protected]
Format settings             : CABAC / 4 Ref Frames
Format settings, CABAC      : Yes
Format settings, ReFrames   : 4 frames
Codec ID                    : 27
Bit rate mode               : Variable
Maximum bit rate            : 33.0 Mb/s
Width                       : 1 920 pixels
Height                      : 1 080 pixels
Display aspect ratio        : 16:9
Frame rate                  : 24.000 FPS
Color space                 : YUV
Chroma subsampling          : 4:2:0
Bit depth                   : 8 bits
Scan type                   : Progressive
Color range                 : Limited
Color primaries             : BT.709
Transfer characteristics    : BT.709
Matrix coefficients         : BT.709

Audio #1
ID                          : 4352 (0x1100)
Menu ID                     : 1 (0x1)
Format                      : DTS XLL
Format/Info                 : Digital Theater Systems
Commercial name             : DTS-HD Master Audio
Muxing mode                 : Stream extension
Codec ID                    : 134
Bit rate mode               : Variable
Channel(s)                  : 8 channels
Channel layout              : C L R LFE Lb Rb Lss Rss
Sampling rate               : 48.0 kHz
Frame rate                  : 93.750 FPS (512 SPF)
Bit depth                   : 24 bits
Compression mode            : Lossless
Delay relative to video     : -90 ms

Audio #2
ID                          : 4353 (0x1101)
Menu ID                     : 1 (0x1)
Format                      : E-AC-3
Format/Info                 : Enhanced AC-3
Commercial name             : Dolby Digital Plus
Format profile              : Blu-ray Disc
Muxing mode                 : Stream extension
Codec ID                    : 132
Bit rate mode               : Constant
Bit rate                    : 768 kb/s
Channel(s)                  : 8 channels
Channel layout              : L R C LFE Ls Rs Lb Rb
Sampling rate               : 48.0 kHz
Frame rate                  : 31.250 FPS (1536 SPF)
Compression mode            : Lossy
Delay relative to video     : -68 ms
Stream size                 : 20.1 MiB (2%)
Service kind                : Complete Main

Audio #3
ID                          : 4354 (0x1102)
Menu ID                     : 1 (0x1)
Format                      : AC-3
Format/Info                 : Audio Coding 3
Commercial name             : Dolby Digital
Codec ID                    : 129
Bit rate mode               : Constant
Bit rate                    : 448 kb/s
Channel(s)                  : 2 channels
Channel layout              : L R
Sampling rate               : 48.0 kHz
Frame rate                  : 31.250 FPS (1536 SPF)
Bit depth                   : 16 bits
Compression mode            : Lossy
Delay relative to video     : -68 ms
Stream size                 : 11.7 MiB (1%)
Service kind                : Complete Main

Text #1
ID                          : 4608 (0x1200)
Menu ID                     : 1 (0x1)
Format                      : PGS
Codec ID                    : 144

Text #2
ID                          : 4609 (0x1201)
Menu ID                     : 1 (0x1)
Format                      : PGS
Codec ID                    : 144

01-Papa Toh Band Bajaye [By-DusIcTv].m2ts – 1.0 GB

02-Do U Know [By-DusIcTv].m2ts – 1.5 GB

03-Right Now Now [By-DusIcTv].m2ts – 1.1 GB

04-Anarkali Disco Chali [By-DusIcTv].m2ts – 1.4 GB

05-Papa Toh Band Bajaye End Roll [By-DusIcTv].m2ts – 404.5 MB

0 0 vote
Article Rating
Subscribe
Notify of
guest
3 Comments
Oldest
Newest Most Voted
Inline Feedbacks
View all comments
fozan
fozan
1 year ago

thank you so much sir

KingPin
KingPin
1 year ago

Thank you very much…..Can you upload “A Flying Jatt 2016 1080p NF WebHD AVC DD5.1 – M2Tv” 7.89 GiB
Or any bigger source.

Tariq 806
Tariq 806
1 year ago

X