Heart Touching Music Video Collection {Vol 1} 1080p HDTV Untouched x264 – Hon3y

Format profile : Base Media / Version 2
Codec ID : mp42 (mp42/mp41)
File size : 328 MiB
Duration : 5 min 31 s
Overall bit rate mode : Variable
Overall bit rate : 8 316 kb/s
Encoded date : UTC 2015-04-29 02:13:41
Tagged date : UTC 2015-04-29 02:14:02
TIM : 00:00:16:06
TSC : 30000
TSZ : 1001

Video
ID : 1
Format : AVC
Format/Info : Advanced Video Codec
Format profile : [email protected]
Format settings : CABAC / 3 Ref Frames
Format settings, CABAC : Yes
Format settings, ReFrames : 3 frames
Codec ID : avc1
Codec ID/Info : Advanced Video Coding
Duration : 5 min 31 s
Source duration : 5 min 31 s
Bit rate : 7 994 kb/s
Width : 1 920 pixels
Height : 1 080 pixels
Display aspect ratio : 16:9
Frame rate mode : Variable
Frame rate : 29.970 (30000/1001) FPS
Minimum frame rate : 29.970 FPS
Maximum frame rate : 30.000 FPS
Standard : NTSC
Color space : YUV
Chroma subsampling : 4:2:0
Bit depth : 8 bits
Scan type : Progressive
Bits/(Pixel*Frame) : 0.129
Stream size : 315 MiB (96%)
Source stream size : 315 MiB (96%)
Language : English
Encoded date : UTC 2015-04-29 02:13:41
Tagged date : UTC 2015-04-29 02:13:41
Color range : Limited
Color primaries : BT.709
Transfer characteristics : BT.709
Matrix coefficients : BT.709
mdhd_Duration : 331064
Codec configuration box : avcC

Audio
ID : 2
Format : AAC LC
Format/Info : Advanced Audio Codec Low Complexity
Codec ID : mp4a-40-2
Duration : 5 min 31 s
Source duration : 5 min 31 s
Bit rate mode : Variable
Bit rate : 317 kb/s
Maximum bit rate : 421 kb/s
Channel(s) : 2 channels
Channel layout : L R
Sampling rate : 48.0 kHz
Frame rate : 46.875 FPS (1024 SPF)
Compression mode : Lossy
Stream size : 12.5 MiB (4%)
Source stream size : 12.5 MiB (4%)
Language : English
Encoded date : UTC 2015-04-29 02:13:41
Tagged date : UTC 2015-04-29 02:13:41
mdhd_Duration : 331115

[Hon3y] Aa Ab Laut Chalen – Aa Ab Laut Chalen – Otashi Anata.mp4 – 300.3 MB

[Hon3y] Aa Ab Laut Chalen – Aa Ab Laut Chalen.mp4 – 287.7 MB

[Hon3y] Aa Ab Laut Chalen -Mera Dil Tera Deewana.mp4 – 298.8 MB

[Hon3y] Aao Pyaar Karen – Hathon Mein Aa Gaya.mp4 – 277.6 MB

[Hon3y] Aao Pyar Karen – Chaand Se Parda Kijiye.mp4 – 293.1 MB

[Hon3y] Ab Ke Baras – Deewana Aate Jaate.mp4 – 328.2 MB

[Hon3y] Bol Radha Bol – Tu Tu Tu Tara.mp4 – 294.6 MB

[Hon3y] Dil Hai Tumhaara – Dil Laga Liya.mp4 – 268.8 MB

[Hon3y] Dil Hai Tumhaara – Kasam Kha K Kaho.mp4 – 262.6 MB

[Hon3y] Dil Hai Tumhaara – Mohabat.mp4 – 332.3 MB

[Hon3y] Dil Hai Tumhaara – O Sahiba O Sahiba.mp4 – 191.6 MB

[Hon3y] Fida – Ishq Hai To Ishq Ka.mp4 – 333.0 MB

[Hon3y] Gopi Kishan – Yeh Ishq Hai Kya.mp4 – 312.7 MB

[Hon3y] Haal E Dil – Jeeta Hoon.mp4 – 256.4 MB

[Hon3y] Haal E Dil – Wo Rani Mere Khwabon Ki.mp4 – 252.5 MB

[Hon3y] Hello Brother – Chupke Se Koi Aayega.mp4 – 297.5 MB

[Hon3y] Hello Brother – Teri Chunariya Dil Le.mp4 – 255.0 MB

[Hon3y] Hogi Pyaar Ki Jeet – Tere Pyar Mein Main Marjawan.mp4 – 203.8 MB

[Hon3y] Hum Ko Tumse Pyar Hai – Tere Ishq May Pagal Ho Gaya.mp4 – 356.3 MB

[Hon3y] Jann – Jaan O Meri Jaan.mp4 – 403.3 MB

[Hon3y] Kahladi – Wada Raha Sanam.mp4 – 307.0 MB

[Hon3y] Mein Khiladi Tu Anari – Paas Woh Aane Lage.mp4 – 275.1 MB

[Hon3y] Mohra – Subah Se Le Kar Sham Tak.mp4 – 362.1 MB

[Hon3y] Phool Aur Kaante – Maine Pyar Tumhi Se Kiya Hai.mp4 – 313.0 MB

[Hon3y] Yaadein – Chamakti Shaam.mp4 – 338.4 MB

[Hon3y] Yaadein – Jab Dil Mile.mp4 – 326.6 MB

0 0 vote
Article Rating
Subscribe
Notify of
guest
1 Comment
Oldest
Newest Most Voted
Inline Feedbacks
View all comments
Mehedi Hasan
Mehedi Hasan
1 year ago

thanks for share…..