Haunted 2011 Hindi 720p HDRip x264 AC3 – Hon3y | 3 GB |


Media Info:

Format
Format version                           : Version 4 / Version 2
File size                                : 2.99 GiB
Duration                                 : 2 h 22 min
Overall bit rate                         : 3 000 kb/s
Encoded date                             : UTC 2015-06-23 06:07:10
Writing application                      : mkvmerge v7.9.0 (‘Birds’) 64bit
ID                                       : 1
Format                                   : AVC
Format/Info                              : Advanced Video Codec
Format profile                           : [email protected]
Format settings                          : CABAC / 12 Ref Frames
Format settings, CABAC                   : Yes
Format settings, RefFrames               : 12 frames
Codec ID                                 : V_MPEG4/ISO/AVC
Duration                                 : 2 h 22 min
Bit rate                                 : 2 816 kb/s
Width                                    : 1 280 pixels
Height                                   : 536 pixels
Display aspect ratio                     : 2.40:1
Frame rate mode                          : Constant
Frame rate                               : 24.000 FPS
Color space                              : YUV
Chroma subsampling                       : 4:2:0
Bit depth                                : 8 bits
Scan type                                : Progressive
Bits/(Pixel*Frame)                       : 0.171
Stream size                              : 2.80 GiB (94%)
Writing library                          : x264 core 146 r2538 121396c

Default                                  : Yes
Forced                                   : No
Writing library                          : libebml v1.3.1 + libmatroska v1.4.2
ID                                       : 2
Format                                   : AC-3
Format/Info                              : Audio Coding 3
Codec ID                                 : A_AC3
Duration                                 : 2 h 22 min
Bit rate mode                            : Constant
Bit rate                                 : 192 kb/s
Channel(s)                               : 2 channels
Channel positions                        : Front: L R
Sampling rate                            : 44.1 kHz
Frame rate                               : 28.711 FPS (1536 SPF)
Bit depth                                : 16 bits
Compression mode                         : Lossy
Stream size                              : 196 MiB (6%)
Service kind                             : Complete Main
Default                                  : Yes
Forced                                   : No


Screenshots:

https://drive.klop.me/file/8cc7e51e19

 

0 0 vote
Article Rating
Subscribe
Notify of
guest
0 Comments
Inline Feedbacks
View all comments