Haseena Maan Jaayegi (1999) 1080p NF WEB-DL x264 {Hindi Dolby Digital 2.0} ESub By~Hammer~| G- Drive | 5.58 GB |

Format                                   : Matroska
Format version                           : Version 4 / Version 2
File size                                : 5.58 GiB
Duration                                 : 2 h 30 min
Overall bit rate                         : 5 293 kb/s
Movie name                               : Haseena Maan Jaayegi (1999) 1080p NF WEB-DL x264 Hindi Dolby Digital 2.0 ESub By~Hammer~
Bit rate                                 : 5 000 kb/s
Width                                    : 1 920 pixels
Height                                   : 816 pixels
Display aspect ratio                     : 2.35:1
Frame rate mode                          : Constant
Frame rate                               : 24.000 FPS
Title                                    : ~EncodeR~Hammer~
Language                                 : Hindi
Default                                  : Yes
Forced                                   : No

Audio
Format                                   : AC-3
Format/Info                              : Audio Coding 3
Codec ID                                 : A_AC3
Duration                                 : 2 h 30 min
Bit rate mode                            : Constant
Bit rate                                 : 224 kb/s
Channel(s)                               : 2 channels
Channel positions                        : Front: L R
Sampling rate                            : 48.0 kHz
Frame rate                               : 31.250 FPS (1536 SPF)
Bit depth                                : 16 bits
Compression mode                         : Lossy
Stream size                              : 242 MiB (4%)
Title                                    : Hindi Org DD 2.0 224 kbps By~Hammer~
Language                                 : Hindi
Default                                  : Yes
Forced                                   : No

Text #1
Format                                   : PGS
Muxing mode                              : zlib
Codec ID                                 : S_HDMV/PGS
Codec ID/Info                            : Picture based subtitle format used on BDs/HD-DVDs
Duration                                 : 2 h 28 min
Bit rate                                 : 37.4 kb/s
Count of elements                        : 5004
Stream size                              : 39.7 MiB (1%)
Default                                  : Yes
Forced                                   : No

Text #2
Format                                   : PGS
Muxing mode                              : zlib
Codec ID                                 : S_HDMV/PGS
Codec ID/Info                            : Picture based subtitle format used on BDs/HD-DVDs
Duration                                 : 2 h 28 min
Bit rate                                 : 31.7 kb/s
Count of elements                        : 5002
Stream size                              : 33.6 MiB (1%)
Default                                  : No
Forced                                   : No

G- Drive Download

The File Locker Download

0 0 vote
Article Rating
Subscribe
Notify of
guest
1 Comment
Oldest
Newest Most Voted
Inline Feedbacks
View all comments
PRASANTA
PRASANTA
4 months ago

Pls fix the link