Harry Potter The Complete&Film Collection 1080p 1GB(Hin-Eng) Rip Collection 11GB

Harry Potter Movies Pack 1-8 (2003-2011) 720p BRRip [Dual Audio ...

Format : Matroska
Format version : Version 4
File size : 940 MiB
Duration : 2 h 40 min
Overall bit rate : 817 kb/s
Movie name : HEVCBay.com
Encoded date : UTC 2020-05-31 04:38:47
Writing application : mkvmerge v47.0.0 (‘Black Flag’) 64-bit
Writing library : libebml v1.3.10 + libmatroska v1.5.2 / Lavf57.83.100

Video
ID : 1
Format : HEVC
Format/Info : High Efficiency Video Coding
Format profile : [email protected]@Main
Codec ID : V_MPEGH/ISO/HEVC
Duration : 2 h 40 min
Bit rate : 691 kb/s
Width : 1 920 pixels
Height : 800 pixels
Display aspect ratio : 2.40:1
Frame rate mode : Constant
Frame rate : 23.976 (24000/1001) FPS
Color space : YUV
Chroma subsampling : 4:2:0
Bit depth : 8 bits
Bits/(Pixel*Frame) : 0.019
Stream size : 795 MiB (85%)
Writing library : x265 2.6:[Linux][GCC 5.4.0][64 bit] 8bit+10bit+12bit
Encoding settings : cpuid=1050111 / frame-threads=2 / wpp / no-pmode / no-pme / no-psnr / no-ssim / log-level=2 / input-csp=1 / input-res=1920×800 / interlace=0 / total-frames=0 / level-idc=0 / high-tier=1 / uhd-bd=0 / ref=3 / no-allow-non-conformance / no-repeat-headers / annexb / no-aud / no-hrd / info / hash=0 / no-temporal-layers / open-gop / min-keyint=23 / keyint=250 / bframes=4 / b-adapt=2 / b-pyramid / bframe-bias=0 / rc-lookahead=20 / lookahead-slices=5 / scenecut=40 / no-intra-refresh / ctu=64 / min-cu-size=8 / no-rect / no-amp / max-tu-size=32 / tu-inter-depth=1 / tu-intra-depth=1 / limit-tu=0 / rdoq-level=0 / dynamic-rd=0.00 / no-ssim-rd / signhide / no-tskip / nr-intra=0 / nr-inter=0 / no-constrained-intra / strong-intra-smoothing / max-merge=2 / limit-refs=3 / no-limit-modes / me=1 / subme=2 / merange=57 / temporal-mvp / weightp / no-weightb / no-analyze-src-pics / deblock=0:0 / sao / no-sao-non-deblock / rd=3 / no-early-skip / rskip / no-fast-intra / no-tskip-fast / no-cu-lossless / no-b-intra / no-splitrd-skip / rdpenalty=0 / psy-rd=2.00 / psy-rdoq=0.00 / no-rd-refine / analysis-reuse-mode=0 / no-lossless / cbqpoffs=0 / crqpoffs=0 / rc=crf / crf=28.0 / qcomp=0.60 / qpstep=4 / stats-write=0 / stats-read=0 / ipratio=1.40 / pbratio=1.30 / aq-mode=1 / aq-strength=1.00 / cutree / zone-count=0 / no-strict-cbr / qg-size=32 / no-rc-grain / qpmax=69 / qpmin=0 / no-const-vbv / sar=1 / overscan=0 / videoformat=5 / range=0 / colorprim=2 / transfer=2 / colormatrix=2 / chromaloc=0 / display-window=0 / max-cll=0,0 / min-luma=0 / max-luma=255 / log2-max-poc-lsb=8 / vui-timing-info / vui-hrd-info / slices=1 / no-opt-qp-pps / no-opt-ref-list-length-pps / no-multi-pass-opt-rps / scenecut-bias=0.05 / no-opt-cu-delta-qp / no-aq-motion / no-hdr / no-hdr-opt / no-dhdr10-opt / analysis-reuse-level=5 / scale-factor=0 / refine-intra=0 / refine-inter=0 / refine-mv=0 / no-limit-sao / ctu-info=0 / no-lowpass-dct / refine-mv-type=0 / copy-pic=1
Default : Yes
Forced : No

Audio #1
ID : 2
Format : AAC LC
Format/Info : Advanced Audio Codec Low Complexity
Codec ID : A_AAC-2
Duration : 2 h 40 min
Bit rate : 92.0 kb/s
Channel(s) : 2 channels
Channel layout : L R
Sampling rate : 48.0 kHz
Frame rate : 46.875 FPS (1024 SPF)
Compression mode : Lossy
Delay relative to video : -83 ms
Stream size : 106 MiB (11%)
Default : Yes
Forced : No

Audio #2
ID : 3
Format : AAC LC SBR
Format/Info : Advanced Audio Codec Low Complexity with Spectral Band Replication
Commercial name : HE-AAC
Format settings : NBC
Codec ID : A_AAC-5
Duration : 2 h 40 min
Bit rate : 32.0 kb/s
Channel(s) : 2 channels
Channel layout : L R
Sampling rate : 22.05 kHz
Frame rate : 10.767 FPS (2048 SPF)
Compression mode : Lossy
Delay relative to video : -83 ms
Stream size : 36.8 MiB (4%)
Title : Track 2 Hindi
Language : Hindi
Default : No
Forced : Yes


vlcsnap-2020-05-31-18h29m26s394vlcsnap-2020-05-31-18h29m32s166vlcsnap-2020-05-31-18h29m52s171vlcsnap-2020-05-31-18h29m58s945vlcsnap-2020-05-31-18h30m29s648vlcsnap-2020-05-31-18h31m04s719vlcsnap-2020-05-31-18h31m10s125
1-Harry Potter and the Philosopher’s Stone (2001)-2Gb
https://bit.ly/2Mcab3b

2-Harry Potter and the Chamber of Secrets (2002)-940Mb
https://bit.ly/3doolKo

3-Harry Potter and the Prisoner of Azkaban (2004) 1.0GB
https://bit.ly/3cddemc

4-Harry Potter and the Goblet of Fire (2005) 1.1Gb
https://bit.ly/2Mh9Yvm

5-Harry Potter and the Order of the Phoenix (2007) 1.0Gb
https://bit.ly/2XhPusG

6-Harry Potter and the Half-Blood Prince (2009) 1.1Gb
https://bit.ly/3ckogG4

7- Harry Potter and the Deathly Hallows – Part 1 (2010) 1.2Gb
https://bit.ly/2McbMpH

8-Harry Potter and the Deathly Hallows – Part 2 (2011) 1.2Gb
https://bit.ly/2XKF7ge

0 0 vote
Article Rating
Subscribe
Notify of
guest
0 Comments
Inline Feedbacks
View all comments