Hamari Adhuri Kahani (2015) (MUSIC VIDEO ALBUM) Untouched – BD50 DTS-HDMA 5.1 ESuBS

Video
ID : 4113 (0x1011)
Menu ID : 1 (0x1)
Format : AVC
Format/Info : Advanced Video Codec
Format profile : [email protected]
Format settings : CABAC / 4 Ref Frames
Format settings, CABAC : Yes
Format settings, RefFrames : 4 frames
Codec ID : 27
Duration : 3 min 59 s
Bit rate mode : Variable
Bit rate : 39.6 Mb/s
Maximum bit rate : 35.0 Mb/s
Width : 1 920 pixels
Height : 1 080 pixels
Display aspect ratio : 16:9
Frame rate : 24.000 FPS
Standard : NTSC
Color space : YUV
Chroma subsampling : 4:2:0
Bit depth : 8 bits
Scan type : Progressive
Bits/(Pixel*Frame) : 0.796
Stream size : 1.11 GiB (94%)
Color range : Limited
Color primaries : BT.709
Transfer characteristics : BT.709
Matrix coefficients : BT.709

Audio
ID : 4352 (0x1100)
Menu ID : 1 (0x1)
Format : AC-3
Format/Info : Audio Coding 3
Commercial name : Dolby Digital
Muxing mode : Stream extension
Codec ID : 131
Duration : 3 min 59 s
Bit rate mode : Variable
Bit rate : 640 kb/s
Maximum bit rate : 7 146 kb/s
Channel(s) : 6 channels
Channel layout : L R C LFE Ls Rs
Sampling rate : 96.0 kHz / 48.0 kHz
Frame rate : 31.250 FPS (1536 SPF)
Bit depth : 16 bits
Compression mode : Lossy
Delay relative to video : -125 ms
Stream size : 18.3 MiB (2%)
Language : Hindi
Service kind : Complete Main


 

9ee77bb03239fefc74b6daafaa67ffd0.jpg
ab30edf58d8b3dd0a318fbf0f7f048c6.jpg
3e6264b8c7839b03c683f5f88c790550.jpg
af79feb0827dfbcf43241c11d830f0cf.jpg
1695b652b8933ab2a448d4796357c1c7.jpg
87e0793c32486f10ce34f006ff8ad920.jpg
3fbaf55d81fab4172bd1ee3e256147cc.jpg
b80a6806f780ad0b06dfad9b1b37e202.jpg

01-Hasi (Female) [TeaM DuS].m2ts – 566.3 MB

02-Humnava [TeaM DuS].m2ts – 1.5 GB

03-Hasi (Male) [TeaM DuS].m2ts – 697.7 MB

04-Yeh Kaisi Jagah [TeaM DuS].m2ts – 1.2 GB

05-Zaroori Tha [TeaM DuS].m2ts – 1.4 GB

06-Hamari Adhuri Kahani 1 [TeaM DuS].m2ts – 532.7 MB

07-Hamari Adhuri Kahani 2 [TeaM DuS].m2ts – 672.9 MB

08-Hamari Adhuri Kahani 3 [TeaM DuS].m2ts – 435.1 MB

0 0 vote
Article Rating
Subscribe
Notify of
guest
1 Comment
Oldest
Newest Most Voted
Inline Feedbacks
View all comments
Tariq 806
Tariq 806
1 year ago

?OMG……..Emraan Hashmi movie song, my favorite actor many many tnxs sir

Dear Sir plz upload Emraan Hashmi any movie Untouched BD50 – 1080p – AVC – DTS – HDMA – M2TS – Song