Hamari Adhuri Kahani 2015 Hindi 1080p BluRay x264 -Esub ~ Hon3y | 8.39 GB |

General
File name        : Hamari Adhuri Kahani 2015 Hindi 1080p BluRay x264 -Esub ~ Hon3y.mkv
Format                                   : Matroska
Format version                           : Version 4
File size                                : 8.39 GiB
Duration                                 : 2 h 9 min
Overall bit rate                         : 9 306 kb/s
Movie name                               : ~ jasinpapa ~
Encoded date                             : UTC 2019-09-17 07:15:49
Writing application                      : mkvmerge v35.0.0 (‘All The Love In The World’) 64-bit
Writing library                          : libebml v1.3.9 + libmatroska v1.5.2

Video
ID                                       : 1
Format                                   : AVC
Format/Info                              : Advanced Video Codec
Format profile                           : [email protected]
Format settings                          : CABAC / 5 Ref Frames
Format settings, CABAC                   : Yes
Format settings, Reference frames        : 5 frames
Codec ID                                 : V_MPEG4/ISO/AVC
Duration                                 : 2 h 9 min
Bit rate                                 : 8 665 kb/s
Width                                    : 1 920 pixels
Height                                   : 816 pixels
Display aspect ratio                     : 2.35:1
Frame rate mode                          : Constant
Frame rate                               : 24.000 FPS
Color space                              : YUV
Chroma subsampling                       : 4:2:0
Bit depth                                : 8 bits
Scan type                                : Progressive
Bits/(Pixel*Frame)                       : 0.230
Stream size                              : 7.82 GiB (93%)
Writing library                          : x264 core 146 r2538 121396c
Default                                  : Yes
Forced                                   : No

Audio
ID                                       : 2
Format                                   : AC-3
Format/Info                              : Audio Coding 3
Commercial name                          : Dolby Digital
Codec ID                                 : A_AC3
Duration                                 : 2 h 8 min
Bit rate mode                            : Constant
Bit rate                                 : 640 kb/s
Channel(s)                               : 6 channels
Channel layout                           : L R C LFE Ls Rs
Sampling rate                            : 48.0 kHz
Frame rate                               : 31.250 FPS (1536 SPF)
Compression mode                         : Lossy
Stream size                              : 590 MiB (7%)
Language                                 : Hindi
Service kind                             : Complete Main
Default                                  : No
Forced                                   : No

Text
ID                                       : 3
Format                                   : UTF-8
Codec ID                                 : S_TEXT/UTF8
Codec ID/Info                            : UTF-8 Plain Text
Duration                                 : 2 h 1 min
Bit rate                                 : 47 b/s
Count of elements                        : 1419
Stream size                              : 42.4 KiB (0%)
Language                                 : English
Default                                  : No
Forced                                   : No

Google Drive Link : https://drive.klop.me/file/de42f4c456

0 0 vote
Article Rating
Subscribe
Notify of
guest
0 Comments
Inline Feedbacks
View all comments