Gupt (1997) (MUSIC VIDEO ALBUM) Untouched – BD50 LPCM 5.1 ESuBS By-DusIcTv

Media info

General
ID                                       : 1 (0x1)
Format                                   : BDAV
Format                                   : M2ts
Format/Info                              : Blu-ray Video
File size                                : 9.71 GB
Overall bit rate mode                    : Variable
Overall bit rate                         : 36.3 Mb/s
Maximum Overall bit rate                 : 35.5 Mb/s

Video
ID                                       : 4113 (0x1011)
Menu ID                                  : 1 (0x1)
Format                                   : AVC
Format/Info                              : Advanced Video Codec
Format profile                           : [email protected]
Format settings                          : CABAC / 4 Ref Frames
Format settings, CABAC                   : Yes
Format settings, Reference frames        : 4 frames
Codec ID                                 : 27
Bit rate mode                            : Variable
Bit rate                                 : 29.6 Mb/s
Maximum bit rate                         : 33.0 Mb/s
Width                                    : 1 920 pixels
Height                                   : 1 080 pixels
Display aspect ratio                     : 16:9
Frame rate                               : 24.000 FPS
Standard                                 : NTSC
Color space                              : YUV
Chroma subsampling                       : 4:2:0
Bit depth                                : 8 bits
Scan type                                : Progressive
Bits/(Pixel*Frame)                       : 0.594
Stream size                              : 1.24 GiB (82%)
Color range                              : Limited
Color primaries                          : BT.709
Transfer characteristics                 : BT.709
Matrix coefficients                      : BT.709

Audio #1
ID                                       : 4352 (0x1100)
Menu ID                                  : 1 (0x1)
Format                                   : PCM
Format settings                          : Big / Signed
Muxing mode                              : Blu-ray
Codec ID                                 : 128
Bit rate mode                            : Constant
Bit rate                                 : 4 608 kb/s
Channel(s)                               : 6 channels
Channel layout                           : L R C Ls Rs LFE
Sampling rate                            : 48.0 kHz
Bit depth                                : 16 bits
Delay relative to video                  : -56 ms
Stream size                              : 197 MiB (13%)
Language                                 : Hindi

Audio #2
ID                                       : 4353 (0x1101)
Menu ID                                  : 1 (0x1)
Format                                   : AC-3
Format/Info                              : Audio Coding 3
Commercial name                          : Dolby Digital
Codec ID                                 : 129
Bit rate mode                            : Constant
Bit rate                                 : 640 kb/s
Channel(s)                               : 6 channels
Channel layout                           : L R C LFE Ls Rs
Sampling rate                            : 48.0 kHz
Frame rate                               : 31.250 FPS (1536 SPF)
Bit depth                                : 16 bits
Compression mode                         : Lossy
Delay relative to video                  : -48 ms
Stream size                              : 27.4 MiB (2%)
Language                                 : Hindi
Service kind                             : Complete Main

Text
ID                                       : 4608 (0x1200)
Menu ID                                  : 1 (0x1)
Format                                   : PGS
Codec ID                                 : 144
Language                                 : English

Screen Shot

G-Drive Link

https://drive.google.com/open?id=1kXRR03-uEfz-cG1S1mfs9cZ_XnrzoZe2

01-Gupt Gupt Title Song [By-DusIcTv].m2ts – 606.9 MB

02-Duniya Haseeno Ka Mela [By-DusIcTv].m2ts – 1.5 GB

03-Mere Khwaabon Mein Tu [By-DusIcTv].m2ts – 1.3 GB

04-Mushkil Bada Yeh Pyaar Hai [By-DusIcTv].m2ts – 1.4 GB

05-Gupt Gupt [By-DusIcTv].m2ts – 273.0 MB

06-Mere Sanam [By-DusIcTv].m2ts – 1.3 GB

07-Yeh Pyaasi Mohabbat [By-DusIcTv].m2ts – 1.4 GB

08-Yeh Pyaar Kya Hai [By-DusIcTv].m2ts – 1.6 GB

09-Duniya Haseeno Ka Mela End Roll [By-DusIcTv].m2ts – 281.8 MB

 

0 0 vote
Article Rating
Subscribe
Notify of
guest
3 Comments
Oldest
Newest Most Voted
Inline Feedbacks
View all comments
VICTORIA
VICTORIA
1 year ago

Hi! can you upload: SHAANDAAR BD50 (MUSIC VIDEO ALBUM), CHENNAI EXPRESS BD50 (MUSIC VIDEO ALBUM), SANAM TERI KASAM BD50 (MUSIC VIDEO ALBUM), DILWALE BD50 (MUSIC VIDEO ALBUM), OK JAANU BD50 (MUSIC VIDEO ALBUM), BAREILLY KI BARFI BD50 (MUSIC VIDEO ALBUM, RAANJHANAA BD50 (MUSIC VIDEO ALBUM), GUNDAY BD50 (MUSIC VIDEO ALBUM), RAEES BD50 (MUSIC VIDEO ALBUM), OM SHANTI OM BD50 (MUSIC VIDEO ALBUM), ABCD 2 BD50 (MUSIC VIDEO ALBUM), MERE BROTHER KI DULHAN BD50 (MUSIC VIDEO ALBUM), GOLMAAL 3 BD50 (MUSIC VIDEO ALBUM), KRRISH BD50 (MUSIC VIDEO ALBUM)…. Please.

Tariq 806
Tariq 806
1 year ago

Dear Sir, Who listens to such old songs? Upload songs after the 2000s

Raj Pani
Raj Pani
1 month ago

The third song on that list is not available right now
Upload that again please