Gunaah (2002) Hindi 1080p Untouched WebHD AVC {Music Video}

Thanks To special 26

Format                         : Matroska
Format version                 : Version 4
File size                      : 1.62 GB
Overall bit rate               : 10.6 Mb/s
Writing library : libebml v1.3.6 + libmatroska v1.4.9

Video
ID                             : 1
Format                         : AVC
Format/Info                    : Advanced Video Codec
Format profile                 : [email protected]
Format settings                : CABAC / 2 Ref Frames
Format settings, CABAC         : Yes
Format settings, ReFrames      : 2 frames
Codec ID                       : V_MPEG4/ISO/AVC
Bit rate mode                  : Constant
Bit rate                       : 10.4 Mb/s
Width                          : 1 920 pixels
Height                         : 1 080 pixels
Display aspect ratio           : 16:9
Frame rate mode                : Constant
Frame rate                     : 29.970 (30000/1001) FPS
Color space                    : YUV
Chroma subsampling             : 4:2:0
Bit depth                      : 8 bits
Scan type                      : Progressive
Bits/(Pixel*Frame)             : 0.167
Stream size                    : 396 MiB (98%)
Default                        : Yes
Forced                         : No

Audio
ID                             : 2
Format                         : AAC LC
Format/Info                    : Advanced Audio Codec
Codec ID                       : A_AAC-2
Bit rate                       : 182 kb/s
Channel(s)                     : 2 channels
Channel layout                 : L R
Sampling rate                  : 48.0 kHz
Frame rate                     : 46.875 FPS (1024 SPF)
Compression mode               : Lossy
Delay relative to video        : 12 ms
Stream size                    : 6.95 MiB (2%)
Default                        : Yes
Forced                         : No


Screenshots

3855fafeb92c55e5b50fafae39dadb8f.png
055d3aa70e33098253b3d854216661e6.png
37740e7cac1656c7779f4a36f9b5f0fd.png
9e20845854eafff8a064e06f7c126b7a.png
fe9c86d4b36b17abe6a0c1b6178d5a95.png
509b1b57eca78913ae94a0ab5534d298.png
7c2919a009a1dec2fa59ee7a5411c8f8.png
70dfa7da697bddd09335688d8f7582bb.png

{ G-Drive } Download  Link 

0 0 vote
Article Rating
Subscribe
Notify of
guest
4 Comments
Oldest
Newest Most Voted
Inline Feedbacks
View all comments
Tasleem
1 year ago

Yaar songs nai yeh

vicky kumar
1 year ago

link not active so plzz active link

vicky kumar
1 year ago

How long will the link activate

ShawaN BD
ShawaN BD
6 months ago

Please fixed this link