Gulabo Sitabo (2020)[Hindi 1080p HDRip – HEVC – 5.1- x265 1GB


Format : Matroska
Format version : Version 4
File size : 1.10 GiB
Duration : 2 h 4 min
Overall bit rate mode : Variable
Overall bit rate : 1 264 kb/s
Writing application : Lavf58.28.101
Writing library : Lavf58.28.101
ErrorDetectionType : Per level 1

Video
ID : 1
Format : HEVC
Format/Info : High Efficiency Video Coding
Format profile : [email protected]@Main
Codec ID : V_MPEGH/ISO/HEVC
Duration : 2 h 4 min
Bit rate : 851 kb/s
Width : 1 920 pixels
Height : 800 pixels
Display aspect ratio : 2.40:1
Frame rate mode : Variable
Original frame rate : 24.000 FPS
Color space : YUV
Chroma subsampling : 4:2:0
Bit depth : 8 bits
Stream size : 760 MiB (67%)
Writing library : Lavc58.53.100 libx265
Default : Yes
Forced : No
Color range : Limited

Audio #1
ID : 2
Format : Vorbis
Format settings, Floor : 1 / 16898
Codec ID : A_VORBIS
Duration : 2 h 4 min
Bit rate mode : Variable
Bit rate : 276 kb/s
Channel(s) : 6 channels
Sampling rate : 48.0 kHz
Compression mode : Lossy
Stream size : 247 MiB (22%)
Writing application : Lavc58.53.100
Writing library : libVorbis (Now 100% fewer shells) (20180316 (Now 100% fewer shells))
Default : No
Forced : No

Audio #2
ID : 3
Format : Vorbis
Format settings, Floor : 1
Codec ID : A_VORBIS
Duration : 2 h 4 min
Bit rate mode : Variable
Bit rate : 112 kb/s
Channel(s) : 2 channels
Sampling rate : 48.0 kHz
Compression mode : Lossy
Stream size : 100 MiB (9%)
Writing application : Lavc58.53.100
Writing library : libVorbis (Now 100% fewer shells) (20180316 (Now 100% fewer shells))
Default : No
Forced : No

Text #1
ID : 4
Format : ASS
Codec ID : S_TEXT/ASS
Codec ID/Info : Advanced Sub Station Alpha
Duration : 2 h 1 min
Compression mode : Lossless
Writing library : Lavc58.53.100 ssa
Default : No
Forced : No

Text #2
ID : 5
Format : ASS
Codec ID : S_TEXT/ASS
Codec ID/Info : Advanced Sub Station Alpha
Duration : 2 h 1 min
Compression mode : Lossless
Writing library : Lavc58.53.100 ssa
Default : No
Forced : No

Text #3
ID : 6
Format : ASS
Codec ID : S_TEXT/ASS
Codec ID/Info : Advanced Sub Station Alpha
Duration : 2 h 1 min
Compression mode : Lossless
Writing library : Lavc58.53.100 ssa
Default : No
Forced : No

Text #4
ID : 7
Format : ASS
Codec ID : S_TEXT/ASS
Codec ID/Info : Advanced Sub Station Alpha
Duration : 2 h 1 min
Compression mode : Lossless
Writing library : Lavc58.53.100 ssa
Default : No
Forced : No

Text #5
ID : 8
Format : ASS
Codec ID : S_TEXT/ASS
Codec ID/Info : Advanced Sub Station Alpha
Duration : 2 h 1 min
Compression mode : Lossless
Writing library : Lavc58.53.100 ssa
Default : No
Forced : No

Text #6
ID : 9
Format : ASS
Codec ID : S_TEXT/ASS
Codec ID/Info : Advanced Sub Station Alpha
Duration : 2 h 1 min
Compression mode : Lossless
Writing library : Lavc58.53.100 ssa
Default : No
Forced : No

Text #7
ID : 10
Format : ASS
Codec ID : S_TEXT/ASS
Codec ID/Info : Advanced Sub Station Alpha
Duration : 2 h 1 min
Compression mode : Lossless
Writing library : Lavc58.53.100 ssa
Default : No
Forced : No

Text #8
ID : 11
Format : ASS
Codec ID : S_TEXT/ASS
Codec ID/Info : Advanced Sub Station Alpha
Duration : 2 h 1 min
Compression mode : Lossless
Writing library : Lavc58.53.100 ssa
Default : No
Forced : No

Text #9
ID : 12
Format : ASS
Codec ID : S_TEXT/ASS
Codec ID/Info : Advanced Sub Station Alpha
Duration : 2 h 1 min
Compression mode : Lossless
Writing library : Lavc58.53.100 ssa
Default : No
Forced : No

Text #10
ID : 13
Format : ASS
Codec ID : S_TEXT/ASS
Codec ID/Info : Advanced Sub Station Alpha
Duration : 2 h 1 min
Compression mode : Lossless
Writing library : Lavc58.53.100 ssa
Default : No
Forced : No

Text #11
ID : 14
Format : ASS
Codec ID : S_TEXT/ASS
Codec ID/Info : Advanced Sub Station Alpha
Duration : 2 h 1 min
Compression mode : Lossless
Writing library : Lavc58.53.100 ssa
Default : No
Forced : No

Text #12
ID : 15
Format : ASS
Codec ID : S_TEXT/ASS
Codec ID/Info : Advanced Sub Station Alpha
Duration : 2 h 1 min
Compression mode : Lossless
Writing library : Lavc58.53.100 ssa
Default : No
Forced : No

Text #13
ID : 16
Format : ASS
Codec ID : S_TEXT/ASS
Codec ID/Info : Advanced Sub Station Alpha
Duration : 2 h 1 min
Compression mode : Lossless
Writing library : Lavc58.53.100 ssa
Default : No
Forced : No

Text #14
ID : 17
Format : ASS
Codec ID : S_TEXT/ASS
Codec ID/Info : Advanced Sub Station Alpha
Duration : 2 h 1 min
Compression mode : Lossless
Writing library : Lavc58.53.100 ssa
Default : No
Forced : No

Text #15
ID : 18
Format : ASS
Codec ID : S_TEXT/ASS
Codec ID/Info : Advanced Sub Station Alpha
Duration : 2 h 1 min
Compression mode : Lossless
Writing library : Lavc58.53.100 ssa
Default : No
Forced : No


Gdrive Single Link+Download
https://bit.ly/37rfXb1

PandaFiles Single Link+Download
https://bit.ly/2C2Mokm

0 0 vote
Article Rating
Subscribe
Notify of
guest
0 Comments
Inline Feedbacks
View all comments