Guilty (2020) (1080p WEBRip x265 HEVC 10bit AAC 5.1 RONIN)


Complete name : Guilty (2020) (1080p WEBRip x265 HEVC 10bit AAC 5.1 RONIN).mkv
Format : Matroska
Format version : Version 4
File size : 2.53 GiB
Duration : 1 h 59 min
Overall bit rate : 3 017 kb/s
Movie name : Guilty (2020) (1080p WEBRip x265 HEVC 10bit AAC 5.1 RONIN)
Encoded date : UTC 2020-03-07 05:25:03
Writing application : mkvmerge v43.0.0 (‘The Quartermaster’) 64-bit
Writing library : libebml v1.3.10 + libmatroska v1.5.2
Attachments : RONIN.jpg

Video
ID : 1
Format : HEVC
Format/Info : High Efficiency Video Coding
Format profile : Main [email protected]@Main
Codec ID : V_MPEGH/ISO/HEVC
Duration : 1 h 59 min
Bit rate : 2 561 kb/s
Width : 1 920 pixels
Height : 960 pixels
Display aspect ratio : 2.000
Frame rate mode : Constant
Frame rate : 25.000 FPS
Color space : YUV
Chroma subsampling : 4:2:0
Bit depth : 10 bits
Bits/(Pixel*Frame) : 0.056
Stream size : 2.14 GiB (85%)
Title : Guilty (2020) (1080p WEBRip x265 HEVC 10bit AAC 5.1 RONIN)
Writing library : x265 3.2+9-971180b100f8:[Windows][GCC 9.2.0][64 bit] 10bit
Encoding settings : cpuid=1049071 / frame-threads=4 / numa-pools=8,8 / wpp / no-pmode / no-pme / no-psnr / no-ssim / log-level=2 / input-csp=1 / input-res=1920×960 / interlace=0 / total-frames=179853 / level-idc=40 / high-tier=1 / uhd-bd=0 / ref=4 / no-allow-non-conformance / no-repeat-headers / annexb / no-aud / no-hrd / info / hash=0 / no-temporal-layers / open-gop / min-keyint=25 / keyint=250 / gop-lookahead=0 / bframes=8 / b-adapt=2 / b-pyramid / bframe-bias=0 / rc-lookahead=80 / lookahead-slices=6 / scenecut=40 / radl=0 / no-splice / no-intra-refresh / ctu=64 / min-cu-size=8 / no-rect / no-amp / max-tu-size=32 / tu-inter-depth=1 / tu-intra-depth=1 / limit-tu=0 / rdoq-level=0 / dynamic-rd=0.00 / no-ssim-rd / signhide / no-tskip / nr-intra=0 / nr-inter=0 / no-constrained-intra / no-strong-intra-smoothing / max-merge=4 / limit-refs=1 / no-limit-modes / me=1 / subme=5 / merange=57 / temporal-mvp / no-frame-dup / no-hme / weightp / weightb / no-analyze-src-pics / deblock=1:1 / no-sao / no-sao-non-deblock / rd=4 / selective-sao=0 / early-skip / rskip / no-fast-intra / no-tskip-fast / no-cu-lossless / b-intra / no-splitrd-skip / rdpenalty=0 / psy-rd=2.00 / psy-rdoq=0.00 / no-rd-refine / no-lossless / cbqpoffs=0 / crqpoffs=0 / rc=abr / bitrate=2560 / qcomp=0.60 / qpstep=4 / stats-write=0 / stats-read=0 / ipratio=1.40 / pbratio=1.30 / aq-mode=3 / aq-strength=1.00 / cutree / zone-count=0 / no-strict-cbr / qg-size=32 / no-rc-grain / qpmax=69 / qpmin=0 / no-const-vbv / sar=0 / overscan=0 / videoformat=5 / range=0 / colorprim=1 / transfer=1 / colormatrix=1 / chromaloc=0 / display-window=0 / cll=0,0 / min-luma=0 / max-luma=1023 / log2-max-poc-lsb=8 / vui-timing-info / vui-hrd-info / slices=1 / no-opt-qp-pps / no-opt-ref-list-length-pps / no-multi-pass-opt-rps / scenecut-bias=0.05 / no-opt-cu-delta-qp / no-aq-motion / no-hdr / no-hdr-opt / no-dhdr10-opt / no-idr-recovery-sei / analysis-reuse-level=5 / scale-factor=0 / refine-intra=0 / refine-inter=0 / refine-mv=1 / refine-ctu-distortion=0 / no-limit-sao / ctu-info=0 / no-lowpass-dct / refine-analysis-type=0 / copy-pic=1 / max-ausize-factor=1.0 / no-dynamic-refine / no-single-sei / no-hevc-aq / no-svt / no-field / qp-adaptation-range=1.00
Default : Yes
Forced : No
Color range : Limited
Color primaries : BT.709
Transfer characteristics : BT.709
Matrix coefficients : BT.709

Audio
ID : 2
Format : AAC LC
Format/Info : Advanced Audio Codec Low Complexity
Codec ID : A_AAC-2
Duration : 1 h 59 min
Bit rate : 454 kb/s
Channel(s) : 6 channels
Channel layout : C L R Ls Rs LFE
Sampling rate : 48.0 kHz
Frame rate : 46.875 FPS (1024 SPF)
Compression mode : Lossy
Delay relative to video : 20 ms
Stream size : 389 MiB (15%)
Title : Hindi AAC 5.1 ~RONIN~
Language : Hindi
Default : Yes
Forced : No

Text
ID : 3
Format : UTF-8
Codec ID : S_TEXT/UTF8
Codec ID/Info : UTF-8 Plain Text
Duration : 1 h 58 min
Bit rate : 65 b/s
Count of elements : 1847
Stream size : 57.1 KiB (0%)
Title : SRT
Language : English
Default : No
Forced : No


1080p [Google Drive+Download] ( 2.5Gb)

http://bit.ly/2Tw3YDK

0 0 vote
Article Rating
Subscribe
Notify of
guest
6 Comments
Oldest
Newest Most Voted
Inline Feedbacks
View all comments
Ash
Ash
11 months ago

Link not working

Ash
Ash
11 months ago
Reply to  Ash

Sorry not working still

Himanshu Joshi
Himanshu Joshi
11 months ago

Please friend upload Dhoom movie 2004 in 3 to 4 gb size n Sunday movie 2008 in 3 to 4 gb size 1080p quality please

Himanshu Joshi
Himanshu Joshi
11 months ago

Dhoom 2004 bollywood movie please upload full HD 1080p or 720p quality approximately 3 to 4 gb size but please in good print quality please do upload Dhoom 2004 movie

Himanshu Joshi
Himanshu Joshi
11 months ago

Please friend upload Dhoom movie 2004 full HD 1080p or 720p quality approximately 3 to 4 gb size but please upload in good print quality please do upload Dhoom 2004 bollywood movie