Great Grand Masti (2016) Full Movie 1080p Censored WEB-DL AAC ESub

Format                                   : MPEG-4
Format profile                           : Base Media
Codec ID                                 : isom (isom/iso2/avc1/mp41)
File size                                : 3.24 GiB
Duration                                 : 1 h 52 min
Overall bit rate                         : 4 127 kb/s
Writing application                      : Lavf58.17.101

Video
ID                                       : 1
Format                                   : AVC
Format/Info                              : Advanced Video Codec
Format profile                           : [email protected]
Format settings                          : 1 Ref Frames
Format settings, CABAC                   : No
Format settings, RefFrames               : 1 frame
Codec ID                                 : avc1
Codec ID/Info                            : Advanced Video Coding
Duration                                 : 1 h 52 min
Bit rate                                 : 3 994 kb/s
Width                                    : 1 920 pixels
Height                                   : 816 pixels
Display aspect ratio                     : 2.35:1
Frame rate mode                          : Constant
Frame rate                               : 25.000 FPS
Color space                              : YUV
Chroma subsampling                       : 4:2:0
Bit depth                                : 8 bits
Scan type                                : Progressive
Bits/(Pixel*Frame)                       : 0.102
Stream size                              : 3.13 GiB (97%)
Writing library                          : Zencoder Video Encoding System
Color range                              : Limited
Color primaries                          : BT.709
Transfer characteristics                 : BT.709
Matrix coefficients                      : BT.709

Audio
ID                                       : 2
Format                                   : AAC
Format/Info                              : Advanced Audio Codec
Format profile                           : LC
Codec ID                                 : mp4a-40-2
Duration                                 : 1 h 52 min
Bit rate mode                            : Constant
Bit rate                                 : 128 kb/s
Channel(s)                               : 2 channels
Channel positions                        : Front: L R
Sampling rate                            : 44.1 kHz
Frame rate                               : 43.066 FPS (1024 SPF)
Compression mode                         : Lossy
Stream size                              : 103 MiB (3%)
Default                                  : Yes
Alternate group                          : 1

PLAY ONLINE

The File Locker Download {3.24 GB} {zip}

Quick Download {3.24 GB} {zip}

{ Direct } Download  Link {3.24 GB}

{ G-Drive } Download  Link {3.24 GB}

{ Mega – Drive } Download  Link {3.24 GB} {ZIP}

{Media Fire } Download  Link {3.24 GB} {zip}

0 0 vote
Article Rating
Subscribe
Notify of
guest
5 Comments
Oldest
Newest Most Voted
Inline Feedbacks
View all comments
amirsohail
1 year ago

Bollywood movie 2013 horror story 1080p karo upload

amirsohail
1 year ago

Superman 1978 movie 1080p dual audio karo upload

sagar
sagar
9 months ago

please upload uncensored version of grand masti 2013 and great grand masti 2016 in 1080p . I request you please.

sagar
sagar
Reply to  SaturnWeb
9 months ago

Thank you so much…