Golmaal Returns (2008) 1080p BluRay REMUX AVC DTS-HD 5.1 – Invictus | G-Drive | 20GB |

General

Format : Matroska
Format version : Version 4
File size : 19.6 GiB
Duration : 2 h 15 min
Overall bit rate mode : Variable
Overall bit rate : 20.6 Mb/s
Writing application : Lavf58.28.101
Writing library : Lavf58.28.101
ErrorDetectionType : Per level 1

Video
ID : 1
Format : AVC
Format/Info : Advanced Video Codec
Format profile : [email protected]
Format settings : CABAC / 2 Ref Frames
Format settings, CABAC : Yes
Format settings, ReFrames : 2 frames
Format settings, GOP : M=4, N=24
Codec ID : V_MPEG4/ISO/AVC
Duration : 2 h 15 min
Bit rate mode : Variable
Bit rate : 18.7 Mb/s
Maximum bit rate : 35.0 Mb/s
Width : 1 920 pixels
Height : 1 080 pixels
Display aspect ratio : 16:9
Frame rate mode : Constant
Frame rate : 24.000 FPS
Color space : YUV
Chroma subsampling : 4:2:0
Bit depth : 8 bits
Scan type : Progressive
Bits/(Pixel*Frame) : 0.376
Stream size : 17.8 GiB (91%)
Default : Yes
Forced : No

Audio
ID : 2
Format : DTS
Format/Info : Digital Theater Systems
Codec ID : A_DTS
Duration : 2 h 15 min
Bit rate mode : Constant
Bit rate : 1 509 kb/s
Channel(s) : 6 channels
Channel layout : C L R Ls Rs LFE
Sampling rate : 48.0 kHz
Frame rate : 93.750 FPS (512 SPF)
Bit depth : 24 bits
Compression mode : Lossy
Stream size : 1.43 GiB (7%)
Default : Yes
Forced : No

G- Drive Full Movie 

https://drive.klop.me/file/015da8a8fc

https://sharer.pw/file/Kp-o4CpLZp2

https://sharer.pw/file/BPHFLX0TUQM

G- Drive Parts 4.5 GB

Golmaal Returns (2008) 1080p BluRay REMUX AVC DTS-HD 5.1 _ Invictus.part1.rar

Golmaal Returns (2008) 1080p BluRay REMUX AVC DTS-HD 5.1 _ Invictus.part2.rar

Golmaal Returns (2008) 1080p BluRay REMUX AVC DTS-HD 5.1 _ Invictus.part3.rar

Golmaal Returns (2008) 1080p BluRay REMUX AVC DTS-HD 5.1 _ Invictus.part4.rar

Golmaal Returns (2008) 1080p BluRay REMUX AVC DTS-HD 5.1 _ Invictus.part5.rar

The File Locker Parts 4.5 GB 

Golmaal Returns (2008) 1080p BluRay REMUX AVC DTS-HD 5.1 _ Invictus.part5.rar – 2.1 GB

Golmaal Returns (2008) 1080p BluRay REMUX AVC DTS-HD 5.1 _ Invictus.part4.rar – 4.4 GB

Golmaal Returns (2008) 1080p BluRay REMUX AVC DTS-HD 5.1 _ Invictus.part3.rar – 4.4 GB

Golmaal Returns (2008) 1080p BluRay REMUX AVC DTS-HD 5.1 _ Invictus.part2.rar – 4.4 GB

Golmaal Returns (2008) 1080p BluRay REMUX AVC DTS-HD 5.1 _ Invictus.part1.rar – 4.4 GB

0 0 vote
Article Rating
Subscribe
Notify of
guest
0 Comments
Inline Feedbacks
View all comments