Golmaal – Fun Unlimited (2006) (MUSIC VIDEOS ALBUM) 1080p WebHD AVC DDP 5.1 By-DusIcTv | 1.3 GB |

Media info
General
Format : Matroska
Format version : Version 4
File size : 1.33 GB
Overall bit rate : 14.5 Mb/s
Encoded date : UTC 2020-01-31 12:42:14
Writing application : mkvmerge v41.0.0 (‘Smarra’) 64-bit
Writing library : libebml v1.3.9 + libmatroska v1.5.2

Video
ID : 1
Format : AVC
Format/Info : Advanced Video Codec
Format profile : [email protected]
Format settings : CABAC / 4 Ref Frames
Format settings, CABAC : Yes
Format settings, Reference frames : 4 frames
Codec ID : V_MPEG4/ISO/AVC
Bit rate : 13.8 Mb/s
Width : 1 920 pixels
Height : 816 pixels
Display aspect ratio : 2.35:1
Frame rate mode : Constant
Frame rate : 25.000 FPS
Color space : YUV
Chroma subsampling : 4:2:0
Bit depth : 8 bits
Scan type : Progressive
Bits/(Pixel*Frame) : 0.353
Stream size : 324 MiB (96%)
Language : English
Default : Yes
Forced : No
Color range : Limited
Color primaries : BT.709
Transfer characteristics : BT.709
Matrix coefficients : BT.709

Audio
ID : 2
Format : E-AC-3
Format/Info : Enhanced AC-3
Commercial name : Dolby Digital Plus
Codec ID : A_EAC3
Bit rate mode : Constant
Bit rate : 640 kb/s
Channel(s) : 6 channels
Channel layout : L R C LFE Ls Rs
Sampling rate : 48.0 kHz
Frame rate : 31.250 FPS (1536 SPF)
Compression mode : Lossy
Delay relative to video : 16 ms
Stream size : 15.0 MiB (4%)
Language : Hindi
Service kind : Complete Main
Default : Yes
Forced : No

Text
ID : 3
Format : UTF-8
Codec ID : S_TEXT/UTF8
Codec ID/Info : UTF-8 Plain Text
Bit rate : 79 b/s
Count of elements : 57
Stream size : 1.79 KiB (0%)
Language : English
Default : No
Forced : No

This Movie Songs Rip For @Special26

G- Drive Download 

https://sharer.pw/file/3GEGaLzZZZG

https://drive.klop.me/file/344ca0fa38

The File Locker Download 

https://thefileslocker.com/774pf42xxz1m.html

0 0 vote
Article Rating
Subscribe
Notify of
guest
1 Comment
Oldest
Newest Most Voted
Inline Feedbacks
View all comments
Katper
Katper
1 year ago

thanks..can u upload this movie in 1080p x264 arouond 4 gb size??