Golmaal 3 2010 1080p Hindi BluRay REMUX AVC DTS ESUBS KartiKing | G- Drive | 31 GB |

Note—— The Remux Is not proper Download With Your Own Risk 

General

Format : Matroska
Format version : Version 4
File size : 31.5 GiB
Duration : 2 h 20 min
Overall bit rate mode : Variable
Overall bit rate : 32.2 Mb/s
Movie name : Golmaal 3 2010 1080p Hindi BluRay REMUX AVC DTS ESUBS KartiKing
Encoded date : UTC 2019-11-08 16:03:58
Writing application : mkvmerge v33.1.0 (‘Primrose’) 64-bit
Writing library : libebml v1.3.7 + libmatroska v1.5.0

Video
ID : 1
Format : AVC
Format/Info : Advanced Video Codec
Format profile : [email protected]
Format settings : CABAC / 4 Ref Frames
Format settings, CABAC : Yes
Format settings, ReFrames : 4 frames
Format settings, GOP : M=3, N=24
Codec ID : V_MPEG4/ISO/AVC
Duration : 2 h 20 min
Bit rate mode : Variable
Bit rate : 29.8 Mb/s
Maximum bit rate : 39.0 Mb/s
Width : 1 920 pixels
Height : 1 080 pixels
Display aspect ratio : 16:9
Frame rate mode : Constant
Frame rate : 24.000 FPS
Standard : NTSC
Color space : YUV
Chroma subsampling : 4:2:0
Bit depth : 8 bits
Scan type : Progressive
Bits/(Pixel*Frame) : 0.599
Stream size : 29.2 GiB (93%)
Default : Yes
Forced : No
Color range : Limited
Color primaries : BT.709
Transfer characteristics : BT.709
Matrix coefficients : BT.709

Audio
ID : 2
Format : DTS XLL
Format/Info : Digital Theater Systems
Commercial name : DTS-HD Master Audio
Codec ID : A_DTS
Duration : 2 h 20 min
Bit rate mode : Variable
Bit rate : 2 346 kb/s
Channel(s) : 6 channels
Channel layout : C L R Ls Rs LFE
Sampling rate : 48.0 kHz
Frame rate : 93.750 FPS (512 SPF)
Bit depth : 16 bits
Compression mode : Lossless
Delay relative to video : 125 ms
Stream size : 2.29 GiB (7%)
Language : Hindi
Default : Yes
Forced : No

Text
ID : 3
Format : PGS
Muxing mode : zlib
Codec ID : S_HDMV/PGS
Codec ID/Info : Picture based subtitle format used on BDs/HD-DVDs
Duration : 2 h 19 min
Bit rate : 34.5 kb/s
Count of elements : 4172
Stream size : 34.3 MiB (0%)
Language : English
Default : Yes
Forced : No

G- Drive Full Movie 31 GB

https://drive.klop.me/file/1163a2b8bb

https://sharer.pw/file/1-GP6S9H1Ly

G- Drive Parts Download 4.5

Golmaal 3 2010 1080p Hindi BluRay REMUX AVC DTS ESUBS KartiKing.part1.rar

Golmaal 3 2010 1080p Hindi BluRay REMUX AVC DTS ESUBS KartiKing.part2.rar

Golmaal 3 2010 1080p Hindi BluRay REMUX AVC DTS ESUBS KartiKing.part3.rar

Golmaal 3 2010 1080p Hindi BluRay REMUX AVC DTS ESUBS KartiKing.part4.rar

Golmaal 3 2010 1080p Hindi BluRay REMUX AVC DTS ESUBS KartiKing.part5.rar

Golmaal 3 2010 1080p Hindi BluRay REMUX AVC DTS ESUBS KartiKing.part6.rar

Golmaal 3 2010 1080p Hindi BluRay REMUX AVC DTS ESUBS KartiKing.part7.rar

Golmaal 3 2010 1080p Hindi BluRay REMUX AVC DTS ESUBS KartiKing.part8.rar

The File Locker 4.5 Gb Parts

Golmaal 3 2010 1080p Hindi BluRay REMUX AVC DTS ESUBS KartiKing.part8.rar – 776.1 MB

Golmaal 3 2010 1080p Hindi BluRay REMUX AVC DTS ESUBS KartiKing.part7.rar – 4.4 GB

Golmaal 3 2010 1080p Hindi BluRay REMUX AVC DTS ESUBS KartiKing.part6.rar – 4.4 GB

Golmaal 3 2010 1080p Hindi BluRay REMUX AVC DTS ESUBS KartiKing.part5.rar – 4.4 GB

Golmaal 3 2010 1080p Hindi BluRay REMUX AVC DTS ESUBS KartiKing.part4.rar – 4.4 GB

Golmaal 3 2010 1080p Hindi BluRay REMUX AVC DTS ESUBS KartiKing.part3.rar – 4.4 GB

Golmaal 3 2010 1080p Hindi BluRay REMUX AVC DTS ESUBS KartiKing.part2.rar – 4.4 GB

Golmaal 3 2010 1080p Hindi BluRay REMUX AVC DTS ESUBS KartiKing.part1.rar – 4.4 GB

 

 

0 0 vote
Article Rating
Subscribe
Notify of
guest
2 Comments
Oldest
Newest Most Voted
Inline Feedbacks
View all comments
anurag
anurag
1 year ago

plz upload golmaal 3 in not more than 8 to 9 gb size

Cyrus
Cyrus
1 year ago

Golmaal 3 2010 1080p Hindi BluRay REMUX AVC DTS ESUBS KartiKing.part3.rar – 4.4 GB NOT AVAILABLE. FILE unavailable for download