God Tussi Great Ho (2008) (MUSIC VIDEOS ALBUM) 1080p Untouched WebHD AVC DDP 2.0 ESuBS By-DusIcTv

God Tussi Great Ho (2008) (MUSIC VIDEOS ALBUM) 1080p Untouched WebHD AVC DDP 2.0 ESuBS By-DusIcTv

xxxxxxxxxxxxxxxxxxxxxxxxxxxxxxxxxxxxxxxxxxxxxxxxxxxxxxxxxxxxxxxxxxxxxxxxxxxxxxxxxxxxxxxxxxxxxxxxxxx
God Tussi Great Ho (2008) (MUSIC VIDEOS ALBUM) 1080p Untouched WebHD AVC DDP 2.0 ESuBS By-DusIcTv
xxxxxxxxxxxxxxxxxxxxxxxxxxxxxxxxxxxxxxxxxxxxxxxxxxxxxxxxxxxxxxxxxxxxxxxxxxxxxxxxxxxxxxxxxxxxxxxxxxx

:details:

Format : Matroska
Format version : Version 4
File size : 1.52 GB
Overall bit rate mode : Variable
Overall bit rate : 10.8 Mb/s
Writing application : mkvmerge v38.0.0 (‘The Silent Type’) 64-bit
Writing library : libebml v1.3.9 + libmatroska v1.5.2

Video
ID : 1
Format : AVC
Format/Info : Advanced Video Codec
Format profile : [email protected]
Format settings : CABAC / 4 Ref Frames
Format settings, CABAC : Yes
Format settings, Reference frames : 4 frames
Codec ID : V_MPEG4/ISO/AVC
Bit rate mode : Variable
Bit rate : 10.6 Mb/s
Maximum bit rate : 15.0 Mb/s
Width : 1 920 pixels
Height : 1 080 pixels
Display aspect ratio : 16:9
Frame rate mode : Constant
Frame rate : 25.000 FPS
Color space : YUV
Chroma subsampling : 4:2:0
Bit depth : 8 bits
Scan type : Progressive
Bits/(Pixel*Frame) : 0.204
Stream size : 311 MiB (98%)
Title : By-DusIcTv
Default : Yes
Forced : No
Color range : Limited
Color primaries : BT.709
Transfer characteristics : BT.709
Matrix coefficients : BT.709

Audio
ID : 2
Format : E-AC-3
Format/Info : Enhanced AC-3
Commercial name : Dolby Digital Plus
Codec ID : A_EAC3
Bit rate mode : Constant
Bit rate : 224 kb/s
Channel(s) : 2 channels
Channel layout : L R
Sampling rate : 48.0 kHz
Frame rate : 31.250 FPS (1536 SPF)
Compression mode : Lossy
Delay relative to video : 8 ms
Stream size : 6.60 MiB (2%)
Title : By-DusIcTv
Language : Hindi
Service kind : Complete Main
Default : Yes
Forced : No

Text
ID : 3
Format : UTF-8
Codec ID : S_TEXT/UTF8
Codec ID/Info : UTF-8 Plain Text
Bit rate : 58 b/s
Count of elements : 51
Stream size : 1.65 KiB (0%)
Title : By-DusIcTv
Language : English
Default : Yes
Forced : No

:screenshots:






Credit Goes To : Aminul Islam Ameen & 24x HD BWT /DusIcTv.
:download2:
01-Tujhe Aksa Beach Ghuma Du [By-DusIcTv].mkv – 262.2 MB

https://thefileslocker.com/pzvo2tguc6ar.html

02-Let_s Party [By-DusIcTv].mkv – 468.8 MB

https://thefileslocker.com/eb5m3uwgu00i.html

03-God Tussi Great Ho [By-DusIcTv].mkv – 317.8 MB

https://thefileslocker.com/648fkdeyztbs.html

04-Tumko Dekha [By-DusIcTv].mkv – 228.0 MB

https://thefileslocker.com/l2l14wqan7aa.html

05-Lal Chunariya [By-DusIcTv].mkv – 288.2 MB

https://thefileslocker.com/3rhremuu9fs8.html

0 0 vote
Article Rating
Subscribe
Notify of
guest
0 Comments
Inline Feedbacks
View all comments