Go Goa Gone ( 2013 ) – HEVC x265 10-bit 1080p | 4.5 GB | DB9 |

Release Info

Format : Matroska
Format version : Version 2
File size : 4.52 GiB
Duration : 1 h 42 min
Overall bit rate : 6 334 kb/s
Movie name : Go Goa Gone x265 10-bit 1080p Jio.Cinema [ 4.6 GB ]
Encoded date : UTC 2020-02-07 06:41:26
Writing application : DVDFab 11.0.6.5
Writing library : libebml v1.3.4 + libmatroska v1.4.5

Video
ID : 1
Format : HEVC
Format/Info : High Efficiency Video Coding
Format profile : Main [email protected]@High
Codec ID : V_MPEGH/ISO/HEVC
Duration : 1 h 42 min
Bit rate : 6 140 kb/s
Width : 1 920 pixels
Height : 816 pixels
Display aspect ratio : 2.35:1
Frame rate mode : Constant
Frame rate : 25.000 FPS
Color space : YUV
Chroma subsampling : 4:2:0
Bit depth : 10 bits
Bits/(Pixel*Frame) : 0.157
Stream size : 4.38 GiB (97%)
Default : Yes
Forced : No
Color range : Limited
Color primaries : BT.709
Transfer characteristics : BT.709
Matrix coefficients : BT.709

Audio
ID : 2
Format : AAC LC
Format/Info : Advanced Audio Codec Low Complexity
Codec ID : A_AAC-2
Duration : 1 h 42 min
Bit rate : 192 kb/s
Channel(s) : 2 channels
Channel layout : L R
Sampling rate : 48.0 kHz
Frame rate : 46.875 FPS (1024 SPF)
Compression mode : Lossy
Stream size : 140 MiB (3%)
Default : Yes
Forced : No

Go Goa Gone ( 2013 ) – HEVC x265 10-bit 1080p DB9.mkv – [4.52 GB]

https://new.gdtot.com/file/4853520823

https://sharer.pw/file/b-Q3VfiyL5w

0 0 vote
Article Rating
Subscribe
Notify of
guest
1 Comment
Oldest
Newest Most Voted
Inline Feedbacks
View all comments
Amal
Amal
1 year ago

Subtitles, please?