Ghulam-E-Mustafa (1997) 1080p Untouched WEB-DL x264 {Hindi DD+2.0 & DD 2.0} ESub By~Hammer~

Ghulam-E-Mustafa (1997) 1080p Untouched WEB-DL x264 {Hindi DD+2.0 & DD 2.0} ESub By~Hammer~


General
Format                                   : Matroska
Format version                           : Version 4
File size                                : 7.25 GiB
Duration                                 : 2 h 41 min
Overall bit rate mode                    : Variable
Overall bit rate                         : 6 441 kb/s
Movie name                               : Ghulam-E-Mustafa (1997) 1080p Untouched WEB-DL x264 {Hindi DD+2.0} ESub By~Hammer~
Bit rate mode                            : Variable
Bit rate                                 : 6 190 kb/s
Maximum bit rate                         : 9 285 kb/s
Width                                    : 1 920 pixels
Height                                   : 1 080 pixels
Display aspect ratio                     : 16:9
Frame rate mode                          : Constant
Frame rate                               : 24.000 FPS
Title                                    : By~Hammer~
Language                                 : Hindi
Default                                  : Yes
Forced                                   : No

Audio #1
Format                                   : AC-3
Format/Info                              : Audio Coding 3
Commercial name                          : Dolby Digital
Codec ID                                 : A_AC3
Duration                                 : 2 h 41 min
Bit rate mode                            : Constant
Bit rate                                 : 128 kb/s
Channel(s)                               : 2 channels
Channel layout                           : L R
Sampling rate                            : 48.0 kHz
Frame rate                               : 31.250 FPS (1536 SPF)
Compression mode                         : Lossy
Stream size                              : 148 MiB (2%)
Title                                    : Hindi DD 2.0 128 kbps
Language                                 : Hindi
Default                                  : Yes
Forced                                   : Yes

Audio #2
Format                                   : E-AC-3
Format/Info                              : Enhanced AC-3
Commercial name                          : Dolby Digital Plus
Codec ID                                 : A_EAC3
Duration                                 : 2 h 41 min
Bit rate mode                            : Constant
Bit rate                                 : 128 kb/s
Channel(s)                               : 2 channels
Channel layout                           : L R
Sampling rate                            : 48.0 kHz
Frame rate                               : 31.250 FPS (1536 SPF)
Compression mode                         : Lossy
Stream size                              : 148 MiB (2%)
Title                                    : Hindi DD+ 2.0 128 kbps
Language                                 : Hindi
Default                                  : No
Forced                                   : No

Text
Format                                   : UTF-8
Codec ID                                 : S_TEXT/UTF8
Codec ID/Info                            : UTF-8 Plain Text
Duration                                 : 2 h 39 min
Bit rate                                 : 45 b/s
Count of elements                        : 1813
Stream size                              : 52.7 KiB (0%)
Title                                    : English SRT
Language                                 : English
Default                                  : Yes
Forced                                   : No










G- Drive Download 

The File Locker Download 

0 0 vote
Article Rating
Subscribe
Notify of
guest
1 Comment
Oldest
Newest Most Voted
Inline Feedbacks
View all comments
lethal111
lethal111
1 year ago

dear bro, good morning,
plz post Deewaar 1975 BD50 untouched bluray ray movie