Ghost in the Shell (2017) BDRip-HEVC 1080p HeVc License

Original Title : Ghost in the Shell

 

Release year : 2017
Country : United States
Genre : Fiction , action , thriller , drama , crime , detective
Duration : 01:46:56
Translation : Dubbed [License]
Subtitles : Russian, English

Cast : Scarlett Johansson, Johan Philip Asbek, Takeshi Kitano, Juliette Binoche, Michael Pitt, Chin Han, Danusya Samal, Lazarus Ratuere, Yutaka Izumihara, Tavanda Maniymo
Director : Rupert Sanders

Description : Cyber ​​technologies subjugated all spheres of life, and the most dangerous criminals moved into the virtual space. A hybrid cyborg at the head of an elite police unit is following the trail of a powerful hacker.

Quality : BDRip-HEVC 1080p
Format : MKV
Video codec : x265 @ 10bit
Audio codec : AC3
Video : 1920×1080, 23.976 fps, HEVC, ~ 3701 Kbps, 10bit
Audio : Rus, 48 ​​kHz / 16-bit, AC3 5.1, ~ 640 kbps | Duplicated
Audio : Ukr, 48 kHz / 16-bit, AC3 2.0, ~ 192 kbps | Duplicated
Audio : Eng, 48 kHz / 16-bit, AC3 5.1, ~ 640 kbps | Original
Chapter Navigation: Present

Attention!
– H.265 / HEVC (High Efficiency Video Coding) is a new standard for video coding.
– The H.265 / HEVC standard is a logical continuation of the H.264 / AVC (Advanced Video Coding) standard, and is characterized by more efficient compression algorithms, as well as support for high resolution up to 8K UHD (8192×4320). The first version of the H.265 standard was published in early 2013.
– Rips in HEVC format are not supported by all hardware players.
– For correct playback, a software update may be required.
– Please do not disturb the owners of incompatible hardware, there are alternative releases.

Mediainfo
General
Unique ID: 209956338266262014146065831400333327865 (0x9DF41EB0FC5D4C21B99383C349B73DF9)
Complete name: e: HEVCGhost in the Shell (2017) Ghost.in.the.Shell.2017.1080p_HEVCCLUB.mkv
Format: Matroska
Format version: Version 4 / Version 2
File size: 3.87 GiB
Duration: 1 h 46 min
Overall bit rate: 5 176 kb / s
Movie name: Ghost in the Shell (2017) – HEVC.CLUB
Encoded date: UTC 2017-11-16 16:46:49
Writing application: mkvmerge v17.0.0 (‘Be Ur Friend’) 64-bit
Writing library: libebml v1.3.5 + libmatroska v1.4.8
Cover: Yes
Attachments: cover.jpg

Video
ID: 1
Format: HEVC
Format / Info: High Efficiency Video Coding
Format profile: Main 10 @ L4.1 @ High
Codec ID: V_MPEGH / ISO / HEVC
Duration: 1 h 46 min
Bit rate: 3 701 kb / s
Width: 1 920 pixels
Height: 1,080 pixels
Display aspect ratio: 16: 9
Frame rate mode: Constant
Frame rate: 23.976 (24000/1001) FPS
Color space: YUV
Chroma subsampling: 4: 2: 0
Bit depth: 10 bits
Bits / (Pixel * Frame): 0.074
Stream size: 2.76 GiB (71%)
Title: HEVC.CLUB
Writing library: x265 2.3 + 30-c7b7c736696f: [Windows] [GCC 6.3.0] [64 bit] 10bit
Encoding settings: cpuid = 1173503 / frame-threads = 3 / numa-pools = 8 / wpp / no-pmode / no-pme / no-psnr / ssim / log-level = 2 / input-csp = 1 / input-res = 1920×1080 / interlace = 0 / total-frames = 0 / level-idc = 41 / high-tier = 1 / uhd-bd = 0 / ref = 5 / no-allow-non-conformance / repeat-headers / annexb / aud / hrd / info / hash = 0 / no-temporal-layers / open-gop / min-keyint = 23 / keyint = 250 / bframes = 10 / b-adapt = 2 / b-pyramid / bframe-bias = 0 / rc -lookahead = 60 / lookahead-slices = 1 / scenecut = 40 / no-intra-refresh / ctu = 64 / min-cu-size = 8 / no-rect / no-amp / max-tu-size = 32 / tu -inter-depth = 3 / tu-intra-depth = 3 / limit-tu = 0 / rdoq-level = 1 / dynamic-rd = 2.00 / signhide / no-tskip / nr-intra = 0 / nr-inter = 0 / no-constrained-intra / no-strong-intra-smoothing / max-merge = 2 / limit-refs = 3 / no-limit- modes / me = 1 / subme = 7 / merange = 64 / temporal-mvp / weightp / weightb / no-analyze-src-pics / deblock = -3: -3 / no-sao / no-sao-non-deblock / rd = 4 / no-early-skip / no-rskip / no-fast-intra / no-tskip-fast / no-cu-lossless / no-b-intra / rdpenalty = 0 / psy-rd = 3.00 / psy- rdoq = 2.00 / no-rd-refine / analysis-mode = 0 / no-lossless / cbqpoffs = 0 / crqpoffs = 0 / rc = crf / crf = 22.0 / qcomp = 0.80 / qpstep = 6 / stats-write = 0 / stats-read = 0 / vbv-maxrate = 50000 / vbv-bufsize = 50000 / vbv-init = 0.9 / crf-max = 0.0 / crf-min = 0.0 / ipratio = 1.50 / pbratio = 1.00 / aq-mode = 1 / aq-strength = 0.50 / no-cutree / zone-count = 0 / no-strict-cbr / qg-size = 32 / no-rc-grain / qpmax = 69 / qpmin = 0 / sar = 1 / overscan = 0 / videoformat = 5 / range = 0 / colorprim = 2 / transfer = 2 / colormatrix = 1 / chromaloc = 0 / display-window = 0 / max-cll = 0,0 / min-luma = 0 / max-luma = 1023 / log2-max- poc-lsb = 8 / vui-timing-info / vui-hrd-info / slices = 1 / opt-qp-pps / opt-ref-list-length-pps / no-multi-pass-opt-rps / scenecut- bias = 0.05 / no-opt-cu-delta-qp / aq-motion / no-hdr / no-hdr-opt / refine-level = 5 / no-limit-sao
Default: Yes
Forced: Yes
Color range: Limited
Matrix coefficients: BT.709

Audio # 1
ID: 2
Format: AC-3
Format / Info: Audio Coding 3
Codec ID: A_AC3
Duration: 1 h 46 min
Bit rate mode: Constant
Bit rate: 640 kb / s
Channel (s): 6 channels
Channel positions: Front: LCR, Side: LR, LFE
Sampling rate: 48.0 kHz
Frame rate: 31.250 FPS (1536 SPF)
Bit depth: 16 bits
Compression mode: Lossy
Stream size: 490 MiB (12%)
Title: Dub [License]
Language: Russian
Service kind: Complete Main
Default: Yes
Forced: No

Audio # 2
ID: 3
Format: AC-3
Format / Info: Audio Coding 3
Codec ID: A_AC3
Duration: 1 h 46 min
Bit rate mode: Constant
Bit rate: 192 kb / s
Channel (s): 2 channels
Channel positions: Front: LR
Sampling rate: 48.0 kHz
Frame rate: 31.250 FPS (1536 SPF)
Bit depth: 16 bits
Compression mode: Lossy
Stream size: 147 MiB (4%)
Title: Dub [iTunes]
Language: Ukrainian
Service kind: Complete Main
Default: No
Forced: No

Audio # 3
ID: 4
Format: AC-3
Format / Info: Audio Coding 3
Codec ID: A_AC3
Duration: 1 h 46 min
Bit rate mode: Constant
Bit rate: 640 kb / s
Channel (s): 6 channels
Channel positions: Front: LCR, Side: LR, LFE
Sampling rate: 48.0 kHz
Frame rate: 31.250 FPS (1536 SPF)
Bit depth: 16 bits
Compression mode: Lossy
Stream size: 489 MiB (12%)
Title: Original
Language: English
Service kind: Complete Main
Default: No
Forced: No

Text # 1
ID: 5
Format: UTF-8
Codec ID: S_TEXT / UTF8
Codec ID / Info: UTF-8 Plain Text
Duration: 1 h 44 min
Bit rate: 4 b / s
Count of elements: 75
Stream size : 3.56 KiB (0%)
Title: Forced
Language: Russian
Default: Yes
Forced: No

Text # 2
ID: 6
Format: UTF-8
Codec ID: S_TEXT / UTF8
Codec ID / Info: UTF-8 Plain Text
Duration: 1 h 44 min
Bit rate: 56 b / s
Count of elements: 916
Stream size: 43.0 KiB (0%)
Title: Full
Language: Russian
Default: No
Forced: No

Text # 3
ID: 7
Format: UTF-8
Codec ID: S_TEXT / UTF8
Codec ID / Info: UTF-8 Plain Text
Duration: 1 h 34 min
Bit rate: 35 b / s
Count of elements: 881
Stream size: 24.6 KiB (0% )
Title: Full
Language: English
Default: No
Forced: No

Text # 4
ID: 8
Format: UTF-8
Codec ID: S_TEXT / UTF8
Codec ID / Info: UTF-8 Plain Text
Duration: 1 h 37 min
Bit rate: 39 b / s
Count of elements: 883
Stream size: 28.2 KiB (0%)
Title: SDH
Language: English
Default: No
Forced: No

Menu
00: 00: 00.000: en: 00: 00: 00.000
00: 08: 09.322: en: 00: 08: 09.322
00: 14: 39.962: en: 00: 14: 39.962
00: 21: 26.494: en: 00: 21: 26.494
00: 28: 02.681: en: 00: 28 : 02.681
00: 34: 13.218: en: 00: 34: 13.218
00: 39: 27.615: en: 00: 39: 27.615
00: 43: 57.802: en: 00: 43: 57.802
00: 51: 49.815: en: 00 : 51: 49.815
00: 55: 19.066: en: 00: 55: 19.066
01: 01: 06.872: en: 01: 01: 06.872
01: 07: 49.732: en: 01: 07: 49.732
01: 14: 36.972: en: 01: 14: 36.972
01: 20: 31.744: en: 01: 20: 31.744
01: 27: 46.178: en: 01: 27: 46.178
01: 33: 41.407: en: 01: 33 : 41.407
01: 38: 00.083: en: 01: 38: 00.083

    
    
0 0 vote
Article Rating
Subscribe
Notify of
guest
0 Comments
Inline Feedbacks
View all comments