Ghajini (2008) (MUSIC VIDEOS ALBUM) 1080p Blu-Ray Rip DTS-HDMA 5.1 By-DusIcTv

General
Format : Matroska
Format version : Version 4
File size : 2.26 GB
Overall bit rate mode : Variable
Overall bit rate : 15.2 Mb/s
Encoded date : UTC 2020-01-02 17:39:33
Writing application : mkvmerge v41.0.0 (‘Smarra’) 64-bit
Writing library : libebml v1.3.9 + libmatroska v1.5.2

Video
ID : 1
Format : AVC
Format/Info : Advanced Video Codec
Format profile : [email protected]
Format settings : CABAC / 4 Ref Frames
Format settings, CABAC : Yes
Format settings, Reference frames : 4 frames
Codec ID : V_MPEG4/ISO/AVC
Bit rate mode : Variable
Bit rate : 12.3 Mb/s
Maximum bit rate : 62.5 Mb/s
Width : 1 920 pixels
Height : 816 pixels
Display aspect ratio : 2.35:1
Frame rate mode : Constant
Frame rate : 23.976 FPS
Color space : YUV
Chroma subsampling : 4:2:0
Bit depth : 8 bits
Scan type : Progressive
Bits/(Pixel*Frame) : 0.328
Stream size : 181 MiB (81%)
Default : Yes
Forced : No

Audio
ID : 2
Format : DTS XLL
Format/Info : Digital Theater Systems
Commercial name : DTS-HD Master Audio
Codec ID : A_DTS
Bit rate mode : Variable
Bit rate : 2 875 kb/s
Channel(s) : 6 channels
Channel layout : C L R Ls Rs LFE
Sampling rate : 48.0 kHz
Frame rate : 93.750 FPS (512 SPF)
Bit depth : 16 bits
Compression mode : Lossless
Delay relative to video : 4 ms
Stream size : 42.3 MiB (19%)
Language : Hindi
Default : Yes
Forced : No

Text #1
ID : 3
Format : PGS
Muxing mode : zlib
Codec ID : S_HDMV/PGS
Codec ID/Info : Picture based subtitle format used on BDs/HD-DVDs
Bit rate : 18.2 kb/s
Count of elements : 29
Stream size : 216 KiB (0%)
Language : English
Default : Yes
Forced : No

This Movie Songs Rip For @Special26

Zip Download 

 

The File Locker Download

01-Aye Bachchu [By-DusIcTv].mkv – 330.1 MB

02-Behka [By-DusIcTv].mkv – 598.7 MB

03-Latoo [By-DusIcTv].mkv – 223.8 MB

04-Guzarish [By-DusIcTv].mkv – 567.2 MB

05-Kaise Mujhe [By-DusIcTv].mkv – 239.7 MB

06-Kaise Mujhe End Roll [By-DusIcTv].mkv – 359.6 MB

0 0 vote
Article Rating
Subscribe
Notify of
guest
0 Comments
Inline Feedbacks
View all comments