Ghajini (2008) (MUSIC VIDEO ALBUM) 1080p Blu-ray x264 DTS-HDMA 5.1

Video
ID                          : 1
Format                      : AVC
Format/Info                : Advanced Video Codec
Format profile              : [email protected]
Format settings            : CABAC / 5 Ref Frames
Format settings, CABAC      : Yes
Format settings, ReFrames  : 5 frames
Codec ID                    : V_MPEG4/ISO/AVC
Bit rate                    : 11.5 Mb/s
Width                      : 1 920 pixels
Height                      : 816 pixels
Display aspect ratio        : 2.35:1
Frame rate mode            : Constant
Frame rate                  : 23.976 (23976/1000) FPS
Color space                : YUV
Chroma subsampling          : 4:2:0
Bit depth                  : 8 bits
Scan type                  : Progressive
Bits/(Pixel*Frame)          : 0.305
Stream size                : 244 MiB (77%)
Language                    : English
Default                    : Yes
Forced                      : No
Color range                : Limited
Color primaries            : BT.709
Transfer characteristics    : BT.709
Matrix coefficients        : BT.709

Audio #1
ID                          : 2
Format                      : DTS
Format/Info                : Digital Theater Systems
Format profile              : MA / Core
Codec ID                    : A_DTS
Bit rate mode              : Variable / Constant
Bit rate                    : 3 002 kb/s / 1 509 kb/s
Channel(s)                  : 6 channels
Channel positions          : Front: L C R, Side: L R, LFE
Sampling rate              : 48.0 kHz
Frame rate                  : 93.750 FPS (512 SPF)
Bit depth                  : 16 bits
Compression mode            : Lossless / Lossy
Delay relative to video    : 4 ms
Stream size                : 63.9 MiB (20%)
Title                      : By ~MaLiK ZEE~ 1
Language                    : Hindi
Default                    : Yes
Forced                      : No


01-Aye Bachchu [By ~MaLiK ZEE~].mkv – 319.1 MB

02-Behka [By ~MaLiK ZEE~].mkv – 570.7 MB

03-Latoo [By ~MaLiK ZEE~].mkv – 228.7 MB

04-Guzarish [By ~MaLiK ZEE~].mkv – 654.9 MB

05-Kaise Mujhe [By ~MaLiK ZEE~].mkv – 260.9 MB

06-Kaise Mujhe End Roll [By ~MaLiK ZEE~].mkv – 370.3 MB

Walk Alone

0 0 vote
Article Rating
Subscribe
Notify of
guest
2 Comments
Oldest
Newest Most Voted
Inline Feedbacks
View all comments
akash
1 year ago

tnks for upload

Kenreaves
Kenreaves
1 year ago

Thanks for the upload.