Get Out (2017) [1080p] [Dual Audio] [Org DD] {Hindi+Eng.6Ch} -~{[email protected]}

Format version : Version 4
File size : 3.34 GiB
Duration : 1 h 44 min
Overall bit rate mode : Variable
Overall bit rate : 4 592 kb/s
Movie name : .-~{[email protected]}~-.
Encoded date : UTC 2019-05-17 15:45:14
Writing application : mkvmerge v13.0.0 (‘The Juggler’) 64bit
Writing library : libebml v1.3.4 + libmatroska v1.4.5

Video
ID : 1
Format : AVC
Format/Info : Advanced Video Codec
Format profile : [email protected]
Format settings : CABAC / 5 Ref Frames
Format settings, CABAC : Yes
Format settings, ReFrames : 5 frames
Codec ID : V_MPEG4/ISO/AVC
Duration : 1 h 44 min
Bit rate mode : Variable
Bit rate : 3 300 kb/s
Maximum bit rate : 62.5 Mb/s
Width : 1 920 pixels
Height : 802 pixels
Display aspect ratio : 2.40:1
Frame rate mode : Constant
Frame rate : 23.976 (24000/1001) FPS
Color space : YUV
Chroma subsampling : 4:2:0
Bit depth : 8 bits
Scan type : Progressive
Bits/(Pixel*Frame) : 0.089
Stream size : 2.40 GiB (72%)

Forced : No

Audio #1
ID : 2
Format : E-AC-3
Format/Info : Enhanced AC-3
Commercial name : Dolby Digital Plus
Codec ID : A_EAC3
Duration : 1 h 44 min
Bit rate mode : Constant
Bit rate : 640 kb/s
Channel(s) : 6 channels
Channel layout : L R C LFE Ls Rs
Sampling rate : 48.0 kHz
Frame rate : 31.250 FPS (1536 SPF)
Compression mode : Lossy
Delay relative to video : 1 s 0 ms
Stream size : 476 MiB (14%)
Title : RiPPER~ L3GEND~ ORG NETFLIX DOLBY DIGITAL [email protected]~
Language : Hindi
Service kind : Complete Main
Default : Yes
Forced : No

Audio #2
ID : 3
Format : AC-3
Format/Info : Audio Coding 3
Commercial name : Dolby Digital
Codec ID : A_AC3
Duration : 1 h 44 min
Bit rate mode : Constant
Bit rate : 640 kb/s
Channel(s) : 6 channels
Channel layout : L R C LFE Ls Rs
Sampling rate : 48.0 kHz
Frame rate : 31.250 FPS (1536 SPF)
Bit depth : 16 bits
Compression mode : Lossy
Stream size : 476 MiB (14%)
Title : RiPPER~ L3GEND~ ORG BLURAY DOLBY DIGITAL [email protected]~
Language : English
Service kind : Complete Main
Default : No
Forced : No

Text
ID : 4
Format : PGS
Muxing mode : zlib
Codec ID : S_HDMV/PGS
Codec ID/Info : Picture based subtitle format used on BDs/HD-DVDs
Duration : 1 h 38 min
Bit rate : 36.9 kb/s
Count of elements : 2827
Stream size : 26.1 MiB (1%)
Title : L6GEND~ Presentation Graphics Subtitles~
Language : English
Default : Yes
Forced : No

c95bc3bbd31f99015a9b3b3bebb43498.jpg
33c27761b16fb420476b5499bf4218f3.jpg
5625e21fd8a2b21854329ba4e5c25a43.jpg
e5382318eb588e5a96d602f0099ded01.jpg
b646a3c2c3d901a05d6ea8afca869de8.jpg
460927442a3b978dadf0ab06d2f72210.jpg
6ef66dabcd15e5ce6d753ce918939708.jpg

G-DriveThe File Locker 

0 0 vote
Article Rating
Subscribe
Notify of
guest
0 Comments
Inline Feedbacks
View all comments