Gangster (2006) (MUSIC VIDEOS ALBUM) 1080p Blu-Ray Rip DTS-HDMA 5.1 By-DusIcTv | 3.12 GB |

Media info
General
Format : Matroska
Format version : Version 4
File size : 3.12 GB
Overall bit rate mode : Variable
Overall bit rate : 17.2 Mb/s
Encoded date : UTC 2020-01-30 17:59:29
Writing application : mkvmerge v41.0.0 (‘Smarra’) 64-bit
Writing library : libebml v1.3.9 + libmatroska v1.5.2

Video
ID : 1
Format : AVC
Format/Info : Advanced Video Codec
Format profile : [email protected]
Format settings : CABAC / 4 Ref Frames
Format settings, CABAC : Yes
Format settings, Reference frames : 4 frames
Codec ID : V_MPEG4/ISO/AVC
Bit rate mode : Variable
Bit rate : 14.6 Mb/s
Maximum bit rate : 62.5 Mb/s
Width : 1 920 pixels
Height : 818 pixels
Display aspect ratio : 2.35:1
Frame rate mode : Constant
Frame rate : 24.000 FPS
Color space : YUV
Chroma subsampling : 4:2:0
Bit depth : 8 bits
Scan type : Progressive
Bits/(Pixel*Frame) : 0.387
Stream size : 692 MiB (85%)
Default : Yes
Forced : No

Audio
ID : 2
Format : DTS XLL
Format/Info : Digital Theater Systems
Commercial name : DTS-HD Master Audio
Codec ID : A_DTS
Bit rate mode : Variable
Bit rate : 2 629 kb/s
Channel(s) : 6 channels
Channel layout : C L R Ls Rs LFE
Sampling rate : 48.0 kHz
Frame rate : 93.750 FPS (512 SPF)
Bit depth : 16 bits
Compression mode : Lossless
Delay relative to video : 6 ms
Stream size : 125 MiB (15%)
Language : Hindi
Default : Yes
Forced : No

Text
ID : 3
Format : PGS
Muxing mode : zlib
Codec ID : S_HDMV/PGS
Codec ID/Info : Picture based subtitle format used on BDs/HD-DVDs
Bit rate : 25.8 kb/s
Count of elements : 98
Stream size : 988 KiB (0%)
Language : English
Default : Yes
Forced : No

This Movie Songs Rip For @Special26

G- Drive Download

https://drive.klop.me/file/a7feebaf4e

https://sharer.pw/file/z2lTBBDyq0L

 

 

The File Locker Download 

https://thefileslocker.com/a5v210681t8m.html

0 0 vote
Article Rating
Subscribe
Notify of
guest
2 Comments
Oldest
Newest Most Voted
Inline Feedbacks
View all comments
Katper
Katper
1 year ago

thanks buddy..more!!

Barik3
Barik3
1 year ago

Thanks…