Game of Thrones S08 2019 MULTi UHD Bluray 2160p HDR Atmos 7.1 HEVC-DDR | G- Drive | 69 GB |

SPECS

Source : UHD Blu-ray

Format                                  : Matroska
File size                                : 69 GiB
Duration                                : 6 x 1 h 21 min
Overall bit rate mode                    : Variable
Overall bit rate                        : 23.4 Mb/s

Video
Format                                  : HEVC/HDR
Bit rate                                : 15.7 Mb/s
Width                                    : 3 840 pixels
Height                                  : 2 160 pixels
Bit depth                                : 10 bits
Color primaries                          : BT.2020
Transfer characteristics                : PQ
Matrix coefficients                      : BT.2020 non-constant
Mastering display color primaries        : Display P3
Mastering display luminance              : min: 0.0001 cd/m2, max: 1000 cd/m2

Audio
Audio #1
ID                                      : 2
Format                                  : MLP FBA 16-ch
Format/Info                              : Meridian Lossless Packing FBA with 16-channel presentation
Commercial name                          : Dolby TrueHD with Dolby Atmos
Codec ID                                : A_TRUEHD
Duration                                : 1 h 21 min
Bit rate mode                            : Variable
Bit rate                                : 3 784 kb/s
Maximum bit rate                        : 5 634 kb/s
Channel(s)                              : 8 channels
Channel layout                          : L R C LFE Ls Rs Lb Rb
Sampling rate                            : 48.0 kHz
Frame rate                              : 1 200.000 FPS (40 SPF)
Compression mode                        : Lossless
Stream size                              : 2.15 GiB (16%)
Language                                : English
Default                                  : Yes
Forced                                  : No
Number of dynamic objects                : 15
Bed channel count                        : 1 channel
Bed channel configuration                : LFE

Audio #2
ID                                      : 3
Format                                  : AC-3
Format/Info                              : Audio Coding 3
Commercial name                          : Dolby Digital
Codec ID                                : A_AC3
Duration                                : 1 h 21 min
Bit rate mode                            : Constant
Bit rate                                : 640 kb/s
Channel(s)                              : 6 channels
Channel layout                          : L R C LFE Ls Rs
Sampling rate                            : 48.0 kHz
Frame rate                              : 31.250 FPS (1536 SPF)
Bit depth                                : 16 bits
Compression mode                        : Lossy
Stream size                              : 372 MiB (3%)
Language                                : English
Service kind                            : Complete Main
Default                                  : No
Forced                                  : No

Game.of.Thrones.S08E01.2019.MULTi.UHD.Bluray.2160p.HDR.Atmos.7.1.HEVC-DDR.mkv
Game.of.Thrones.S08E02.2019.MULTi.UHD.Bluray.2160p.HDR.Atmos.7.1.HEVC-DDR.mkv
Game.of.Thrones.S08E03.2019.MULTi.UHD.Bluray.2160p.HDR.Atmos.7.1.HEVC-DDR.mkv
Game.of.Thrones.S08E04.2019.MULTi.UHD.Bluray.2160p.HDR.Atmos.7.1.HEVC-DDR.mkv
Game.of.Thrones.S08E05.2019.MULTi.UHD.Bluray.2160p.HDR.Atmos.7.1.HEVC-DDR.mkv
Game.of.Thrones.S08E06.2019.MULTi.UHD.Bluray.2160p.HDR.Atmos.7.1.HEVC-DDR.mkv

https://sharer.pw/file/0U_wXZgoZxk

Game.of.Thrones.S08E01.2019.MULTi.UHD.Bluray.2160p.HDR.Atmos.7.1.HEVC-DDR.mkv – 8.6 GB

Game.of.Thrones.S08E02.2019.MULTi.UHD.Bluray.2160p.HDR.Atmos.7.1.HEVC-DDR.mkv – 9.4 GB

Game.of.Thrones.S08E03.2019.MULTi.UHD.Bluray.2160p.HDR.Atmos.7.1.HEVC-DDR.mkv – 13.3 GB

Game.of.Thrones.S08E04.2019.MULTi.UHD.Bluray.2160p.HDR.Atmos.7.1.HEVC-DDR.mkv – 12.5 GB

Game.of.Thrones.S08E05.2019.MULTi.UHD.Bluray.2160p.HDR.Atmos.7.1.HEVC-DDR.mkv – 12.6 GB

Game.of.Thrones.S08E06.2019.MULTi.UHD.Bluray.2160p.HDR.Atmos.7.1.HEVC-DDR.mkv – 12.7 GB

0 0 vote
Article Rating
Subscribe
Notify of
guest
5 Comments
Oldest
Newest Most Voted
Inline Feedbacks
View all comments
Aman
Aman
1 year ago

Please add game of thrones season 5’6’7′ in 1080p quality super

Pankaj singh
Pankaj singh
1 year ago

My Name Is Khan (2010) (MUSIC VIDEO ALBUM) Untouched – BD50 DTS-HDMA 5.1 ESuBS By-DusIcTv please please boss

lethal111
lethal111
1 year ago

good morning sir,
plz post
No Entry.2005.BD50.Untouched BluRay.DRs

Pankaj singh
Pankaj singh
1 year ago

3 Idiots – (2009) – BD25 Bluray -AVC-DTS HD 5.1-DD 5.1-Hindi Audio – DusIcTv

Raju
Raju
4 months ago

DDR Released other seasons in 4k post those seasons if you can……Thank you