G.I Joe Duology (2009-2013) 1080p x264 BluRay [Dua…o] [Hindi DD 5.1-English DD. 5.1] ESubs By~Hammer~

Format : Matroska
Format version : Version 4
File size : 3.80 GiB
Duration : 1 h 57 min
Overall bit rate : 4 608 kb/s
Movie name : By~Hammer~
Encoded date : UTC 2018-04-13 14:41:34
Writing application : mkvmerge v8.2.0 (‘World of Adventure’) 32bit
Writing library : libebml v1.3.1 + libmatroska v1.4.2

Video
ID : 1
Format : AVC
Format/Info : Advanced Video Codec
Format profile : [email protected]
Format settings : CABAC / 4 Ref Frames
Format settings, CABAC : Yes
Format settings, ReFrames : 4 frames
Codec ID : V_MPEG4/ISO/AVC
Duration : 1 h 57 min
Bit rate : 3 500 kb/s
Width : 1 920 pixels
Height : 800 pixels
Display aspect ratio : 2.40:1
Frame rate mode : Constant
Frame rate : 23.976 (24000/1001) FPS
Color space : YUV
Chroma subsampling : 4:2:0
Bit depth : 8 bits
Scan type : Progressive
Bits/(Pixel*Frame) : 0.095
Stream size : 2.88 GiB (76%)
Title : G.I. Joe -The Rise of Cobra (2009) 1080p x264 BluRay [Dual Audio] [Hindi DD 5.1-English DD. 5.1] ESubs By~Hammer~
Writing library : x264 core 142 r2431 ac76440

ID : 2
Format : AC-3
Format/Info : Audio Coding 3
Commercial name : Dolby Digital
Codec ID : A_AC3
Duration : 1 h 57 min
Bit rate mode : Constant
Bit rate : 448 kb/s
Channel(s) : 6 channels
Channel layout : L R C LFE Ls Rs
Sampling rate : 48.0 kHz
Frame rate : 31.250 FPS (1536 SPF)
Bit depth : 16 bits
Compression mode : Lossy
Stream size : 378 MiB (10%)
Title : Eng Org DD 5.1 By~Hammer~
Language : English
Service kind : Complete Main
Default : No
Forced : No

Audio #2
ID : 3
Format : AC-3
Format/Info : Audio Coding 3
Commercial name : Dolby Digital
Codec ID : A_AC3
Duration : 1 h 57 min
Bit rate mode : Constant
Bit rate : 640 kb/s
Channel(s) : 6 channels
Channel layout : L R C LFE Ls Rs
Sampling rate : 48.0 kHz
Frame rate : 31.250 FPS (1536 SPF)
Bit depth : 16 bits
Compression mode : Lossy
Delay relative to video : 2 s 109 ms
Stream size : 540 MiB (14%)
Title : Hindi Org DD 5.1 By~Hammer~
Language : Hindi
Service kind : Complete Main
Default : Yes
Forced : No

d98c4fb6d0cf8211e5121605854091c1.jpg
6ac797a04f69836c421d8fdefe7adabd.jpg
9e1ce5110cfacfb51c196e620234c4ae.jpg
d93cb06de43cca243d08329c9d5f73f6.jpg
d1e5b849e2639f1c84509fd9cf83adae.jpg

G.I. Joe – Retaliation (2013) { 4 GB} | The File Locker | G – Drive 

G.I. Joe -The Rise of Cobra (2009) { 4 GB } | The File Locker | G- Drive

0 0 vote
Article Rating
Subscribe
Notify of
guest
0 Comments
Inline Feedbacks
View all comments