Four More Shots Please! | Season 2 | 1080p | 720p | AMZN WEB-DL H264 Multi DDP5.1 – Ranvijay – DUS – ICTV | 11.26 GB | 5.46 GB |


Media Info:

Four More Shots Please! S02 1080p AMZN WEB-DL H264 Multi DDP5.1 – Ranvijay – DUS-ICTV

General
Format                                  : Matroska
Format version                          : Version 4
File size                                : 1.25 GiB
Duration                                : 36 min 7 s
Overall bit rate                        : 4 970 kb/s
Encoded date                            : UTC 2020-04-16 15:08:50
Writing application                      : mkvmerge v43.0.0 (‘The Quartermaster’) 64-bit
Writing library                          : libebml v1.3.10 + libmatroska v1.5.2

Video
ID                                      : 1
Format                                  : AVC
Format/Info                              : Advanced Video Codec
Format profile                          : [email protected]
Format settings                          : CABAC / 4 Ref Frames
Format settings, CABAC                  : Yes
Format settings, Reference frames        : 4 frames
Codec ID                                : V_MPEG4/ISO/AVC
Duration                                : 36 min 7 s
Bit rate                                : 4 328 kb/s
Width                                    : 1 920 pixels
Height                                  : 1 080 pixels
Display aspect ratio                    : 16:9
Frame rate mode                          : Constant
Frame rate                              : 25.000 FPS
Color space                              : YUV
Chroma subsampling                      : 4:2:0
Bit depth                                : 8 bits
Scan type                                : Progressive
Bits/(Pixel*Frame)                      : 0.083
Stream size                              : 1.09 GiB (87%)
Default                                  : Yes
Forced                                  : No
Color range                              : Limited
Color primaries                          : BT.709
Transfer characteristics                : BT.709
Matrix coefficients                      : BT.709

Audio
ID                                      : 2
Format                                  : E-AC-3
Format/Info                              : Enhanced AC-3
Commercial name                          : Dolby Digital Plus
Codec ID                                : A_EAC3
Duration                                : 36 min 7 s
Bit rate mode                            : Constant
Bit rate                                : 640 kb/s
Channel(s)                              : 6 channels
Channel layout                          : L R C LFE Ls Rs
Sampling rate                            : 48.0 kHz
Frame rate                              : 31.250 FPS (1536 SPF)
Compression mode                        : Lossy
Stream size                              : 165 MiB (13%)
Title                                    : Hindi
Language                                : Hindi
Service kind                            : Complete Main
Default                                  : No
Forced                                  : No


Screenshots:

1 https://drive.klop.me/file/348b88cea2

2 https://drive.klop.me/file/0a8f35fc04

3 https://drive.klop.me/file/dd27c8144a

4 https://drive.klop.me/file/b0abf70893

5 https://drive.klop.me/file/94f601540a

6 https://drive.klop.me/file/a4be2e70db

7 https://drive.klop.me/file/64540bd127

8 https://drive.klop.me/file/ac9a8a0595

9 https://drive.klop.me/file/f59688e47b

10 https://drive.klop.me/file/6b5020414a

Four More Shots Please S02 1080p AMZN WEB-DL H264 Hindi DDP5.1 – Ranvijay – DUS-ICTV.rar [11.3 GB]

https://drive.klop.me/file/430be67f59

Four.More.Shots.Please.S02.2020.720p.AMZN.WEB-DL.HEVC.HIN.DD+5.1.x265-Telly [5.46 GB]

S02E01 Size:-(607.2 MB)
https://drive.klop.me/file/f2644c172e

S02E02 Size:- (474.1 MB)
https://drive.klop.me/file/8a65ee9186

S02E03 Size:-(487.93 MB)
https://drive.klop.me/file/e7754be950

S02E04 Size:- (517.7 MB)
https://drive.klop.me/file/c6aa608e90

S02E05 Size:- (539.1 MB)
https://drive.klop.me/file/c35dda3d6e

S02E06 Size:-(518.8 MB)
https://drive.klop.me/file/2115207e0c

S02E07 Size:-(533.5 MB)
https://drive.klop.me/file/dc6aee14a1

S02E08 Size:-(523.9 MB)
https://drive.klop.me/file/f70c6e41c1

S02E09 Size:-(685.9 MB)
https://drive.klop.me/file/1f870cad6b

S02E10 Size:-(706.8 MB)
https://drive.klop.me/file/9d94a8dc50

0 0 vote
Article Rating
Subscribe
Notify of
guest
0 Comments
Inline Feedbacks
View all comments