Ford v Ferrari (2019) BlurayRip -DD5.1 [Hindi English] – 1080p – X265 – 6.6GB~!amstark

Image result for ford vs ferrari bluray

Video
ID : 1
Format : HEVC
Format/Info : High Efficiency Video Coding
Format profile : [email protected]@Main
Codec ID : V_MPEGH/ISO/HEVC
Duration : 2 h 32 min
Bit rate : 5 031 kb/s
Width : 1 920 pixels
Height : 1 080 pixels
Display aspect ratio : 2.40:1
Frame rate mode : Constant
Frame rate : 23.976 (24000/1001) FPS
Color space : YUV
Chroma subsampling : 4:2:0
Bit depth : 8 bits
Bits/(Pixel*Frame) : 0.101
Stream size : 5.36 GiB (81%)
Title : Ford.v.Ferrari.2019.BlurayRip X265 1080p~!amstark

Default : Yes
Forced : No
Color range : Limited
Color primaries : BT.709
Transfer characteristics : BT.709
Matrix coefficients : BT.709
FromStats_BitRate : 5153179
FromStats_Duration : 02:32:35.438000000
FromStats_FrameCount : 219511
FromStats_StreamSize : 5897452128

Audio #1
ID : 2
Format : AC-3
Format/Info : Audio Coding 3
Commercial name : Dolby Digital
Codec ID : A_AC3
Duration : 2 h 32 min
Bit rate mode : Constant
Bit rate : 640 kb/s
Channel(s) : 6 channels
Channel layout : L R C LFE Ls Rs
Sampling rate : 48.0 kHz
Frame rate : 31.250 FPS (1536 SPF)
Compression mode : Lossy
Delay relative to video : -5 ms
Stream size : 699 MiB (10%)
Title : Surround
Language : English
Service kind : Complete Main
Default : Yes
Forced : No
FromStats_BitRate : 640000
FromStats_Duration : 02:32:35.424000000
FromStats_FrameCount : 286107
FromStats_StreamSize : 732433920

Audio #2
ID : 3
Format : AC-3
Format/Info : Audio Coding 3
Commercial name : Dolby Digital
Codec ID : A_AC3
Duration : 2 h 32 min
Bit rate mode : Constant
Bit rate : 448 kb/s
Channel(s) : 6 channels
Channel layout : L R C LFE Ls Rs
Sampling rate : 48.0 kHz
Frame rate : 31.250 FPS (1536 SPF)
Compression mode : Lossy
Delay relative to video : -5 ms
Stream size : 489 MiB (7%)
Language : Hindi
Service kind : Complete Main
Default : No
FromStats_BitRate : 448000
FromStats_Duration : 02:32:35.456000000
FromStats_FrameCount : 286108
FromStats_StreamSize : 512705536

Text #1
ID : 4
Format : UTF-8
Codec ID : S_TEXT/UTF8
Codec ID/Info : UTF-8 Plain Text
Title : Forced
Language : English
Default : No
Forced : No
FromStats_BitRate : 0
FromStats_Duration : 01:24:23.849000000
FromStats_FrameCount : 9
FromStats_StreamSize : 304

Text #2
ID : 5
Format : UTF-8
Codec ID : S_TEXT/UTF8
Codec ID/Info : UTF-8 Plain Text
Title : Full
Language : English
Default : No
Forced : No
FromStats_BitRate : 51
FromStats_Duration : 02:24:32.821000000
FromStats_FrameCount : 1638
FromStats_StreamSize : 56153

Text #3
ID : 6
Format : UTF-8
Codec ID : S_TEXT/UTF8
Codec ID/Info : UTF-8 Plain Text
Title : SDH
Language : English
Default : No
Forced : No
FromStats_BitRate : 66
FromStats_Duration : 02:32:24.760000000
FromStats_FrameCount : 2489
FromStats_StreamSize : 75563

1d01057fb8439589047aeee398956261.png
c782922253b79a467767bfb6f2d11b01.png
c2f76887661bcd423adc5cc793482358.png
f6adbc57f9aa32336a0e1a70f34ac5ae.png
454bdb47224511c26d7851fe7015f481.png
b3f77af03d7fd041a02417b880ccbd55.png

1080p (Gdrive +Download) [6.6GB]

0 0 vote
Article Rating
Subscribe
Notify of
guest
0 Comments
Inline Feedbacks
View all comments