First Kill 2017 1080p BluRay Hindi English x264 AC3 MSubs – LOKiHD – Telly 2.8GB

www.gstatic.com/tv/thumb/v22vodart/14041122/p14...

Format : Matroska
Format version : Version 4
File size : 2.82 GiB
Duration : 1 h 41 min
Overall bit rate mode : Variable
Overall bit rate : 3 974 kb/s
Movie name : First Kill 2017 1080p BluRay Hindi English x264 AC3 MSubs – LOKiHD – Telly
Encoded date : UTC 2020-01-09 10:40:56
Writing application : mkvmerge v40.0.0 (‘Old Town Road + Pony’) 32-bit
Writing library : libebml v1.3.9 + libmatroska v1.5.2

Video
ID : 1
Format : AVC
Format/Info : Advanced Video Codec
Format profile : [email protected]
Format settings : CABAC / 4 Ref Frames
Format settings, CABAC : Yes
Format settings, Reference frames : 4 frames
Codec ID : V_MPEG4/ISO/AVC
Duration : 1 h 41 min
Bit rate mode : Variable
Bit rate : 3 130 kb/s
Maximum bit rate : 62.5 Mb/s
Width : 1 920 pixels
Height : 800 pixels
Display aspect ratio : 2.40:1
Frame rate mode : Constant
Frame rate : 23.976 (24000/1001) FPS
Color space : YUV
Chroma subsampling : 4:2:0
Bit depth : 8 bits
Scan type : Progressive
Bits/(Pixel*Frame) : 0.085
Stream size : 2.22 GiB (79%)
Title : LOKiHD – Telly
Writing library : x264 core 157 r2935 545de2f
Encoding settings : cabac=1 / ref=5 / deblock=1:-1:-1 / analyse=0x3:0x113 / me=hex / subme=7 / psy=1 / psy_rd=1.00:0.15 / mixed_ref=1 / me_range=16 / chroma_me=1 / trellis=1 / 8x8dct=1 / cqm=0 / deadzone=21,11 / fast_pskip=1 / chroma_qp_offset=-3 / threads=25 / lookahead_threads=4 / sliced_threads=0 / nr=0 / decimate=1 / interlaced=0 / bluray_compat=0 / constrained_intra=0 / bframes=5 / b_pyramid=1 / b_adapt=1 / b_bias=0 / direct=1 / weightb=1 / open_gop=0 / weightp=1 / keyint=240 / keyint_min=23 / scenecut=40 / intra_refresh=0 / rc_lookahead=40 / rc=2pass / mbtree=1 / bitrate=3130 / ratetol=1.0 / qcomp=0.60 / qpmin=0 / qpmax=69 / qpstep=4 / cplxblur=20.0 / qblur=0.5 / vbv_maxrate=62500 / vbv_bufsize=78125 / nal_hrd=vbr / filler=0 / ip_ratio=1.40 / aq=1:1.00
Language : Hindi
Default : Yes
Forced : Yes

Audio #1
ID : 2
Format : AC-3
Format/Info : Audio Coding 3
Commercial name : Dolby Digital
Codec ID : A_AC3
Duration : 1 h 41 min
Bit rate mode : Constant
Bit rate : 384 kb/s
Channel(s) : 2 channels
Channel layout : L R
Sampling rate : 48.0 kHz
Frame rate : 31.250 FPS (1536 SPF)
Compression mode : Lossy
Stream size : 279 MiB (10%)
Title : LOKiHD – Telly
Language : Hindi
Service kind : Complete Main
Default : Yes
Forced : Yes

Audio #2
ID : 3
Format : AC-3
Format/Info : Audio Coding 3
Commercial name : Dolby Digital
Codec ID : A_AC3
Duration : 1 h 41 min
Bit rate mode : Constant
Bit rate : 384 kb/s
Channel(s) : 6 channels
Channel layout : L R C LFE Ls Rs
Sampling rate : 48.0 kHz
Frame rate : 31.250 FPS (1536 SPF)
Compression mode : Lossy
Stream size : 279 MiB (10%)
Title : LOKiHD – Telly
Language : English
Service kind : Complete Main
Default : No
Forced : No

Text #1
ID : 4
Format : PGS
Codec ID : S_HDMV/PGS
Codec ID/Info : Picture based subtitle format used on BDs/HD-DVDs
Duration : 1 h 34 min
Bit rate : 30.0 kb/s
Count of elements : 2258
Stream size : 20.3 MiB (1%)
Title : SDH
Language : English
Default : Yes
Forced : Yes

Text #2
ID : 5
Format : PGS
Codec ID : S_HDMV/PGS
Codec ID/Info : Picture based subtitle format used on BDs/HD-DVDs
Duration : 1 h 32 min
Bit rate : 27.6 kb/s
Count of elements : 1976
Stream size : 18.2 MiB (1%)
Title : LOKiHD – Telly
Language : English
Default : No
Forced : No

Text #3
ID : 6
Format : PGS
Codec ID : S_HDMV/PGS
Codec ID/Info : Picture based subtitle format used on BDs/HD-DVDs
Duration : 1 h 35 min
Bit rate : 25.5 kb/s
Count of elements : 1902
Stream size : 17.4 MiB (1%)
Title : Latin American
Language : Spanish
Default : No
Forced : No

Menu
00:00:00.000 : en:00:00:00.000
00:06:17.961 : en:00:06:17.961
00:12:44.013 : en:00:12:44.013
00:18:11.048 : en:00:18:11.048
00:27:18.303 : en:00:27:18.303
00:31:22.672 : en:00:31:22.672
00:36:54.337 : en:00:36:54.337
00:42:25.042 : en:00:42:25.042
00:47:59.960 : en:00:47:59.960
00:54:46.992 : en:00:54:46.992
00:59:12.424 : en:00:59:12.424
01:06:39.537 : en:01:06:39.537
01:12:08.908 : en:01:12:08.908
01:18:46.597 : en:01:18:46.597
01:24:15.801 : en:01:24:15.801
01:31:56.094 : en:01:31:56.094


First Kill 2017 1080p BluRay Hindi English x264 AC3 MSubs LOKiHD Telly (5)First Kill 2017 1080p BluRay Hindi English x264 AC3 MSubs LOKiHD Telly (4)First Kill 2017 1080p BluRay Hindi English x264 AC3 MSubs LOKiHD Telly (3)First Kill 2017 1080p BluRay Hindi English x264 AC3 MSubs LOKiHD Telly (2)First Kill 2017 1080p BluRay Hindi English x264 AC3 MSubs LOKiHD Telly (1)
Gdrive Single Link+Download
https://bit.ly/36x2nSE

0 0 vote
Article Rating
Subscribe
Notify of
guest
0 Comments
Inline Feedbacks
View all comments