Final Destination 4 2009 Multi BluRay 1080p HEVC DTS-HDMA 5.1-[En+Hindi]-DDR

Source : FHD Bluray

Format                                  : Matroska
File size                                : 5.36 GiB
Duration                                : 1 h 21 min
Overall bit rate mode                    : Variable
Overall bit rate                        : 9 380 kb/s

Video
Format                                  : HEVC
Format/Info                              : High Efficiency Video Coding
Format profile                          : Main [email protected]@High
Bit rate                                : 6 758 kb/s
Width                                    : 1 920 pixels
Height                                  : 792 pixels
Bit depth                                : 10 bits
Color primaries                          : BT.709

Audio #1
ID                                      : 2
Format                                  : DTS XLL
Format/Info                              : Digital Theater Systems
Commercial name                          : DTS-HD Master Audio
Codec ID                                : A_DTS
Duration                                : 1 h 21 min
Bit rate mode                            : Variable
Bit rate                                : 2 420 kb/s
Channel(s)                              : 6 channels
Channel layout                          : C L R Ls Rs LFE
Sampling rate                            : 48.0 kHz
Frame rate                              : 93.750 FPS (512 SPF)
Bit depth                                : 16 bits
Compression mode                        : Lossless
Stream size                              : 1.38 GiB (26%)
Language                                : English
Default                                  : Yes
Forced                                  : No

Audio #2
ID                                      : 3
Format                                  : AAC LC
Format/Info                              : Advanced Audio Codec Low Complexity
Codec ID                                : A_AAC-2
Duration                                : 1 h 21 min
Bit rate                                : 128 kb/s
Channel(s)                              : 2 channels
Channel layout                          : L R
Sampling rate                            : 44.1 kHz
Frame rate                              : 43.066 FPS (1024 SPF)
Compression mode                        : Lossy
Delay relative to video                  : 23 ms
Stream size                              : 75.1 MiB (1%)
Language                                : Hindi

Download Link {G-drive} 5.36 GiB

 

 

0 0 vote
Article Rating
Subscribe
Notify of
guest
0 Comments
Inline Feedbacks
View all comments