Final Destination 1 2000 Multi 1080p Bluray HEVC TrueHD 5.1[En+Hindi]-DDR

Source : FHD Bluray

Format                                  : Matroska
File size                                : 6.13 GiB
Duration                                : 1 h 38 min
Overall bit rate mode                    : Variable
Overall bit rate                        : 8 939 kb/s

Video
Format                                  : HEVC
Format/Info                              : High Efficiency Video Coding
Format profile                          : Main [email protected]@High
Bit rate                                : 6 928 kb/s
Width                                    : 1 920 pixels
Height                                  : 1 080 pixels
Bit depth                                : 10 bits
Color primaries                          : BT.709

Audio #1
ID                                      : 2
Format                                  : MLP FBA
Format/Info                              : Meridian Lossless Packing FBA
Commercial name                          : Dolby TrueHD
Codec ID                                : A_TRUEHD
Duration                                : 1 h 38 min
Bit rate mode                            : Variable
Bit rate                                : 1 644 kb/s
Maximum bit rate                        : 3 168 kb/s
Channel(s)                              : 6 channels
Channel layout                          : L R C LFE Ls Rs
Sampling rate                            : 48.0 kHz
Frame rate                              : 1 200.000 FPS (40 SPF)
Compression mode                        : Lossless
Stream size                              : 1.13 GiB (18%)
Language                                : English
Default                                  : Yes
Forced                                  : No

Audio #2
ID                                      : 3
Format                                  : AAC LC
Format/Info                              : Advanced Audio Codec Low Complexity
Codec ID                                : A_AAC-2
Duration                                : 1 h 38 min
Bit rate                                : 192 kb/s
Channel(s)                              : 6 channels
Channel layout                          : C L R Ls Rs LFE
Sampling rate                            : 44.1 kHz
Frame rate                              : 43.066 FPS (1024 SPF)
Compression mode                        : Lossy
Delay relative to video                  : 2 s 123 ms
Stream size                              : 135 MiB (2%)
Language                                : Hindi

Download Link ( G-Drive) {6.13 Gb}

https://acefile.co/f/9624863/desishare-orgfinaldch1-ddr-mkv

https://drive.google.com/open?id=1s4HbG17dDq2EVRsBT8FXOB5yv-MAa9FG

https://drive.klop.me/file/3a7598

http://drivehub.link/file.php?id=OS93N2NSRjZFVkdzRGYxOXV4Vi9udnJtWkV3aWZyN2xBQWMrczdQMG9TWkFJbDlpU3VVdmh6cnR4dGI3TG9JUA==

0 0 vote
Article Rating
Subscribe
Notify of
guest
0 Comments
Inline Feedbacks
View all comments