Fear The Walking Dead (2019) S05 720p Untouched WEB-DL x264 {Hindi-Eng DD 5.1 640 kbps} By~Hammer~

Fear The Walking Dead (2019) S05 720p Untouched WEB-DL x264 {Hindi-Eng DD 5.1 640 kbps} By~Hammer~


General
Format                                   : Matroska
Format version                           : Version 4
File size                                : 1.92 GiB
Duration                                 : 45 min 44 s
Overall bit rate mode                    : Constant
Overall bit rate                         : 6 022 kb/s
Movie name                               : Fear The Walking Dead (2019) S05E01 720p Untouched WEB-DL x264 {Hindi-Eng DD 5.1 640 kbps} By~Hammer~
Bit rate mode                            : Constant
Bit rate                                 : 4 740 kb/s
Nominal bit rate                         : 6 000 kb/s
Width                                    : 1 280 pixels
Height                                   : 720 pixels
Display aspect ratio                     : 16:9
Frame rate mode                          : Constant
Frame rate                               : 23.976 (24000/1001) FPS
Title                                    : By~Hammer~
Language                                 : English
Default                                  : Yes
Forced                                   : No

Audio #1
Format                                   : AC-3
Format/Info                              : Audio Coding 3
Commercial name                          : Dolby Digital
Codec ID                                 : A_AC3
Duration                                 : 45 min 44 s
Bit rate mode                            : Constant
Bit rate                                 : 640 kb/s
Channel(s)                               : 6 channels
Channel layout                           : L R C LFE Ls Rs
Sampling rate                            : 48.0 kHz
Frame rate                               : 31.250 FPS (1536 SPF)
Compression mode                         : Lossy
Stream size                              : 209 MiB (11%)
Title                                    : Hindi Org DD 5.1 640 kbps By~Hammer~
Language                                 : Hindi
Default                                  : Yes
Forced                                   : Yes

Audio #2
Format                                   : E-AC-3
Format/Info                              : Enhanced AC-3
Commercial name                          : Dolby Digital Plus
Codec ID                                 : A_EAC3
Duration                                 : 45 min 44 s
Bit rate mode                            : Constant
Bit rate                                 : 640 kb/s
Channel(s)                               : 6 channels
Channel layout                           : L R C LFE Ls Rs
Sampling rate                            : 48.0 kHz
Frame rate                               : 31.250 FPS (1536 SPF)
Compression mode                         : Lossy
Stream size                              : 209 MiB (11%)
Title                                    : Eng DD+5.1 640 kbps By~Hammer~
Language                                 : English
Service kind                             : Complete Main
Default                                  : No
Forced                                   : No













The File Locker Download

Fear The Walking Dead (2019) S05E01 720p Untouched WEB-DL x264 {Hindi-Eng DD 5.1 640 kbps} By~Hammer~.mkv – 1.9 GB

Fear The Walking Dead (2019) S05E02 720p Untouched WEB-DL x264 {Hindi-Eng DD 5.1 640 kbps} By~Hammer~.mkv – 1.6 GB

Fear The Walking Dead (2019) S05E03 720p Untouched WEB-DL x264 {Hindi-Eng DD 5.1 640 kbps} By~Hammer~.mkv – 2.0 GB

Fear The Walking Dead (2019) S05E04 720p Untouched WEB-DL x264 {Hindi-Eng DD 5.1 640 kbps} By~Hammer~.mkv – 2.1 GB

Fear The Walking Dead (2019) S05E05 720p Untouched WEB-DL x264 {Hindi-Eng DD 5.1 640 kbps} By~Hammer~.mkv – 2.0 GB

Fear The Walking Dead (2019) S05E06 720p Untouched WEB-DL x264 {Hindi-Eng DD 5.1 640 kbps} By~Hammer~.mkv – 2.0 GB

Fear The Walking Dead (2019) S05E07 720p Untouched WEB-DL x264 {Hindi-Eng DD 5.1 640 kbps} By~Hammer~.mkv – 1.9 GB

Fear The Walking Dead (2019) S05E08 720p Untouched WEB-DL x264 {Hindi-Eng DD 5.1 640 kbps} By~Hammer~.mkv – 2.0 GB

Fear The Walking Dead (2019) S05E09 720p Untouched WEB-DL x264 {Hindi-Eng DD 5.1 640 kbps} By~Hammer~.mkv – 2.3 GB

Fear The Walking Dead (2019) S05E10 720p Untouched WEB-DL x264 {Hindi-Eng DD 5.1 640 kbps} By~Hammer~.mkv – 2.0 GB

Fear The Walking Dead (2019) S05E11 720p Untouched WEB-DL x264 {Hindi-Eng DD 5.1 640 kbps} By~Hammer~.mkv – 2.1 GB

Fear The Walking Dead (2019) S05E12 720p Untouched WEB-DL x264 {Hindi-Eng DD 5.1 640 kbps} By~Hammer~.mkv – 1.9 GB

Fear The Walking Dead (2019) S05E13 720p Untouched WEB-DL x264 {Hindi-Eng DD 5.1 640 kbps} By~Hammer~.mkv – 2.0 GB

Fear The Walking Dead (2019) S05E14 720p Untouched WEB-DL x264 {Hindi-Eng DD 5.1 640 kbps} By~Hammer~.mkv – 1.8 GB

Fear The Walking Dead (2019) S05E15 720p Untouched WEB-DL x264 {Hindi-Eng DD 5.1 640 kbps} By~Hammer~.mkv – 2.2 GB

Fear The Walking Dead (2019) S05E16 720p Untouched WEB-DL x264 {Hindi-Eng DD 5.1 640 kbps} By~Hammer~.mkv – 2.4 GB

0 0 vote
Article Rating
Subscribe
Notify of
guest
2 Comments
Oldest
Newest Most Voted
Inline Feedbacks
View all comments
Katper
Katper
1 year ago

thank u so much for high quality audio, but it would be much better if you it was 1080p, can you upload 1080p x264 plz??

lethal111
lethal111
1 year ago

dear sir, good morning,
can you please post superhit hindi movie

Waqt 1965 BD50 untouched bluray