Fast & Furious Spy Racers (2019) S01 1080p Untouched WEB-DL {Hindi-Eng DD 5.1} ESub By~Hammer~

Fast & Furious Spy Racers (2019) S01 1080p Untouched WEB-DL {Hindi-Eng DD 5.1} ESub By~Hammer~


General
Format                                   : Matroska
Format version                           : Version 4 / Version 2
File size                                : 1.17 GiB
Duration                                 : 24 min 18 s
Overall bit rate mode                    : Variable
Overall bit rate                         : 6 874 kb/s
Movie name                               : Fast & Furious Spy Racers (2019) S01E01 1080p Untouched WEB-DL {Hindi-Eng DD 5.1} ESub By~Hammer~
Bit rate mode                            : Variable
Bit rate                                 : 5 800 kb/s
Maximum bit rate                         : 8 700 kb/s
Width                                    : 1 920 pixels
Height                                   : 1 080 pixels
Display aspect ratio                     : 16:9
Frame rate mode                          : Constant
Frame rate                               : 23.976 (24000/1001) FPS
Title                                    : By~Hammer~
Language                                 : English
Default                                  : Yes
Forced                                   : No

Audio #1
Format                                   : AC-3
Format/Info                              : Audio Coding 3
Codec ID                                 : A_AC3
Duration                                 : 24 min 18 s
Bit rate mode                            : Constant
Bit rate                                 : 640 kb/s
Channel(s)                               : 6 channels
Channel positions                        : Front: L C R, Side: L R, LFE
Sampling rate                            : 48.0 kHz
Frame rate                               : 31.250 FPS (1536 SPF)
Bit depth                                : 16 bits
Compression mode                         : Lossy
Stream size                              : 111 MiB (9%)
Title                                    : Hindi DD 5.1 640 kbps By~Hammer~
Language                                 : Hindi
Default                                  : Yes
Forced                                   : Yes

Audio #2
Format                                   : E-AC-3
Format/Info                              : Enhanced Audio Coding 3
Codec ID                                 : A_EAC3
Duration                                 : 24 min 18 s
Bit rate mode                            : Constant
Bit rate                                 : 640 kb/s
Channel(s)                               : 6 channels
Channel positions                        : Front: L C R, Side: L R, LFE
Sampling rate                            : 48.0 kHz
Frame rate                               : 187.500 FPS (256 SPF)
Compression mode                         : Lossy
Stream size                              : 111 MiB (9%)
Title                                    : English DD+5.1 640 kbps By~Hammer~
Language                                 : English
Default                                  : No
Forced                                   : No

Text
Format                                   : UTF-8
Codec ID                                 : S_TEXT/UTF8
Codec ID/Info                            : UTF-8 Plain Text
Duration                                 : 22 min 54 s
Bit rate                                 : 88 b/s
Count of elements                        : 413
Stream size                              : 14.8 KiB (0%)
Title                                    : English  SRT
Language                                 : English
Default                                  : Yes
Forced                                   : No














Fast & Furious Spy Racers (2019) S01E01 1080p Untouched WEB-DL {Hindi-Eng DD 5.1} ESub By~Hammer~.mkv – 1.2 GB

Fast & Furious Spy Racers (2019) S01E02 1080p Untouched WEB-DL {Hindi-Eng DD 5.1} ESub By~Hammer~.mkv – 1.0 GB

Fast & Furious Spy Racers (2019) S01E03 1080p Untouched WEB-DL {Hindi-Eng DD 5.1} ESub By~Hammer~.mkv – 1.1 GB

Fast & Furious Spy Racers (2019) S01E04 1080p Untouched WEB-DL {Hindi-Eng DD 5.1} ESub By~Hammer~.mkv – 911.0 MB

Fast & Furious Spy Racers (2019) S01E05 1080p Untouched WEB-DL {Hindi-Eng DD 5.1} ESub By~Hammer~.mkv – 980.4 MB

Fast & Furious Spy Racers (2019) S01E06 1080p Untouched WEB-DL {Hindi-Eng DD 5.1} ESub By~Hammer~.mkv – 740.4 MB

Fast & Furious Spy Racers (2019) S01E07 1080p Untouched WEB-DL {Hindi-Eng DD 5.1} ESub By~Hammer~.mkv – 819.4 MB

Fast & Furious Spy Racers (2019) S01E08 1080p Untouched WEB-DL {Hindi-Eng DD 5.1} ESub By~Hammer~.mkv – 980.8 MB

0 0 vote
Article Rating
Subscribe
Notify of
guest
0 Comments
Inline Feedbacks
View all comments