Fashion (2008) VIDEO SONGS – Blu-Ray x265 10-Bit 1080p – lossless DTS 5.1 – AC3 5.1 | 1.56 GB | DB9 |


Media Info:

Video
ID : 1
Format : HEVC
Format/Info : High Efficiency Video Coding
Format profile : [email protected]@High
Codec ID : V_MPEGH/ISO/HEVC
Duration : 3 min 1 s
Bit rate : 19.6 Mb/s
Width : 1 920 pixels
Height : 852 pixels
Display aspect ratio : 2.25:1
Frame rate mode : Constant
Frame rate : 24.000 FPS
Color space : YUV
Chroma subsampling : 4:2:0
Bit depth : 8 bits
Bits/(Pixel*Frame) : 0.498
Stream size : 422 MiB (76%)
Default : Yes
Forced : No
Color range : Limited
Color primaries : BT.709
Transfer characteristics : BT.709
Matrix coefficients : BT.709

Audio #1
ID : 2
Format : DTS XLL
Format/Info : Digital Theater Systems
Commercial name : DTS-HD Master Audio
Codec ID : A_DTS
Duration : 3 min 0 s
Bit rate mode : Variable
Bit rate : 5 236 kb/s
Channel(s) : 6 channels
Channel layout : C L R Ls Rs LFE
Sampling rate : 48.0 kHz
Frame rate : 93.750 FPS (512 SPF)
Bit depth : 24 bits
Compression mode : Lossless
Stream size : 112 MiB (20%)
Language : Hindi
Default : Yes
Forced : No

Audio #2
ID : 3
Format : AC-3
Format/Info : Audio Coding 3
Commercial name : Dolby Digital
Codec ID : A_AC3
Duration : 3 min 0 s
Bit rate mode : Constant
Bit rate : 640 kb/s
Channel(s) : 6 channels
Channel layout : L R C LFE Ls Rs
Sampling rate : 48.0 kHz
Frame rate : 31.250 FPS (1536 SPF)
Compression mode : Lossy
Stream size : 13.7 MiB (2%)
Language : Hindi
Service kind : Complete Main
Default : No
Forced : No

Audio #3
ID : 4
Format : AC-3
Format/Info : Audio Coding 3
Commercial name : Dolby Digital
Codec ID : A_AC3
Duration : 3 min 1 s
Bit rate mode : Constant
Bit rate : 192 kb/s
Channel(s) : 2 channels
Channel layout : L R
Sampling rate : 48.0 kHz
Frame rate : 31.250 FPS (1536 SPF)
Compression mode : Lossy
Stream size : 4.15 MiB (1%)
Language : Hindi
Service kind : Complete Main
Default : No
Forced : No


Screenshots:

Fashion Ka Jalwa [4K Full Song] Fashion (2008) x265 10-Bit 1080p lossless DTS 5.1 – AC3 5.1- DB9 [552 MB]

https://drive.klop.me/file/7cdf4beaab

Kuch Khaas [4K Full Song] Fashion (2008) x265 10-Bit lossless 1080p DTS 5.1 – AC3 5.1 – DB9 [532 MB]

https://drive.klop.me/file/96ebb4ba21

Aashiyana [4K Full Song] Fashion (2008) x265 10-Bit lossless 1080p DTS 5.1 – AC3 5.1 – DB9 [516 MB]

https://drive.klop.me/file/4dbd214f0d

0 0 vote
Article Rating
Subscribe
Notify of
guest
3 Comments
Oldest
Newest Most Voted
Inline Feedbacks
View all comments
Barik3
Barik3
10 months ago

Thanks….. amazing share.

salman
10 months ago

upload hum aapke hain kaun 1080p nf web dl from DUSICTV bwtorrents plz